<?xml version="1.0" standalone="no"?>
<!DOCTYPE svg PUBLIC "-//W3C//DTD SVG 1.1//EN" "http://www.w3.org/Graphics/SVG/1.1/DTD/svg11.dtd">
<svg xmlns="http://www.w3.org/2000/svg">
<defs >
<font id="Cabin" horiz-adv-x="531" ><font-face
    font-family="Cabin Medium"
    units-per-em="1000"
    panose-1="0 0 6 0 0 0 0 0 0 0"
    ascent="965"
    descent="-250"
    alphabetic="0" />
<glyph unicode=" " glyph-name="space" horiz-adv-x="225" />
<glyph unicode="!" glyph-name="exclam" horiz-adv-x="245" d="M77 214L61 700H185L169 214V187H77V214ZM64 119H181V0H64V119Z" />
<glyph unicode="&quot;" glyph-name="quotedbl" horiz-adv-x="336" d="M33 700H144L125 494H52L33 700ZM191 700H302L283 494H210L191 700Z" />
<glyph unicode="#" glyph-name="numbersign" horiz-adv-x="707" d="M151 214H32L75 310H188L230 419H106L136 509H264L338 700H425L351 509H476L550 700H636L562 509H675L643 419H528L487 310H613L569 214H450L364 -11H277L363 214H239L152 -11H66L151 214ZM399
310L442 419H317L275 310H399Z" />
<glyph unicode="$" glyph-name="dollar" horiz-adv-x="582" d="M552 110T503 57T347 -10L355 -144H268L275 -14Q215 -13 151 1T50 34L64 149Q118 123 179 106T299 88Q362 88 397 111T432 181Q432 216 414 238T360 277T258 315Q192 336 149 359T79 422T52 520Q52
602 110 654T276 713L268 844H355L347 712Q442 704 526 667L514 554Q455 584 404 598T298 613Q237 613 202 591T167 525Q167 494 184 474T231 439T319 407Q438 371 495 321T552 185Q552 110 503 57Z" />
<glyph unicode="%" glyph-name="percent" horiz-adv-x="907" d="M133 314T88 370T43 517Q43 606 89 660T211 714Q287 714 333 660T379 517Q379 427 334 371T211 314Q133 314 88 370ZM248 392T268 424T289 517Q289 576 268 606T211 636Q175 636 154 606T133 517Q133
457 153 425T211 392Q248 392 268 424ZM613 700H704L297 0H206L613 700ZM619 -14T574 42T529 189Q529 278 575 332T697 386Q773 386 819 332T865 189Q865 99 820 43T697 -14Q619 -14 574 42ZM734 64T754 96T775 189Q775 248 754 278T697 308Q661 308 640 278T619
189Q619 129 639 97T697 64Q734 64 754 96Z" />
<glyph unicode="&amp;" glyph-name="ampersand" horiz-adv-x="618" d="M190 -23T139 2T61 70T34 165Q34 225 65 273T159 366Q84 459 84 537Q84 587 109 625T176 683T268 703Q349 703 392 664T435 562Q435 521 414 487T361 426T277 362L446 182Q467 225 473 351H570Q569
292 557 228T512 108L606 0H492L454 41Q413 7 368 -8T262 -23Q190 -23 139 2ZM291 457T316 486T342 553Q342 586 322 603T267 621Q231 621 207 599T182 534Q182 480 233 417Q291 457 316 486ZM354 56T401 105L208 307Q176 281 158 247T139 173Q139 122 170 89T270
56Q354 56 401 105Z" />
<glyph unicode="&apos;" glyph-name="quotesingle" horiz-adv-x="177" d="M33 700H144L125 494H52L33 700Z" />
<glyph unicode="(" glyph-name="parenleft" horiz-adv-x="319" d="M138 -44T102 62T66 307Q66 446 102 552T200 750H290Q234 656 202 549T170 307Q170 173 202 66T290 -136H200Q138 -44 102 62Z" />
<glyph unicode=")" glyph-name="parenright" horiz-adv-x="319" d="M85 -41T117 66T149 307Q149 441 117 548T29 750H120Q182 657 218 551T254 307Q254 169 218 63T120 -136H29Q85 -41 117 66Z" />
<glyph unicode="*" glyph-name="asterisk" horiz-adv-x="430" d="M166 560L32 638L66 692L188 608L183 752H247L242 608L365 692L398 638L265 560L398 481L365 427L242 511L247 365H183L188 511L66 427L32 481L166 560Z" />
<glyph unicode="+" glyph-name="plus" horiz-adv-x="445" d="M178 237H43V321H178V455H267V321H402V237H267V104H178V237Z" />
<glyph unicode="," glyph-name="comma" horiz-adv-x="223" d="M59 -113L98 0H56V119H174V11L117 -113H59Z" />
<glyph unicode="-" glyph-name="hyphen" horiz-adv-x="421" d="M56 356H366V266H56V356Z" />
<glyph unicode="." glyph-name="period" horiz-adv-x="214" d="M48 119H166V0H48V119Z" />
<glyph unicode="/" glyph-name="slash" horiz-adv-x="338" d="M259 700H367L99 -85H-9L259 700Z" />
<glyph unicode="0" glyph-name="zero" horiz-adv-x="701" d="M261 -14T195 32T92 163T56 356Q56 462 93 543T197 669T351 714Q439 714 506 669T609 543T646 356Q646 247 610 163T508 33T351 -14Q261 -14 195 32ZM436 84T484 153T533 356Q533 484 484 550T351 617Q269
617 219 550T168 356Q168 223 216 154T351 84Q436 84 484 153Z" />
<glyph unicode="1" glyph-name="one" horiz-adv-x="344" d="M150 544Q99 506 53 494L39 591Q77 602 118 634T178 700H257V0H150V544Z" />
<glyph unicode="2" glyph-name="two" horiz-adv-x="526" d="M240 288Q294 371 317 419T340 508Q340 556 313 584T238 612Q148 612 69 531L55 643Q144 715 255 715Q347 715 397 661T448 524Q448 461 423 401T335 246L239 101H474V1H51L240 288Z" />
<glyph unicode="3" glyph-name="three" horiz-adv-x="540" d="M415 348T448 304T481 195Q481 130 450 83T363 11T236 -14Q131 -14 37 36L64 132Q107 108 148 95T237 82Q298 82 333 111T368 193Q368 250 331 281T218 312H163V412H218Q278 412 312 440T346 518Q346
567 318 592T238 618Q198 618 162 604T85 565L67 669Q149 714 251 714Q348 714 402 664T457 532Q457 475 430 433T354 368Q415 348 448 304Z" />
<glyph unicode="4" glyph-name="four" horiz-adv-x="596" d="M559 263V172H469V0H361V172H14L392 700H469V263H559ZM361 263V504L190 263H361Z" />
<glyph unicode="5" glyph-name="five" horiz-adv-x="539" d="M331 441T383 413T464 335T492 217Q492 147 460 95T372 15T244 -14Q189 -14 139 0T50 41L76 141Q118 116 156 103T240 90Q303 90 341 124T379 217Q379 282 338 317T223 352Q161 352 86 334L130 700H460L454
596H216L197 437Q224 441 260 441Q331 441 383 413Z" />
<glyph unicode="6" glyph-name="six" horiz-adv-x="565" d="M375 420T422 393T496 317T523 209Q523 144 495 94T414 15T293 -14Q221 -14 167 18T85 110T56 246Q56 351 102 444T220 605T370 714L445 649Q364 608 290 538T183 382Q238 420 316 420Q375 420 422 393ZM348
78T382 114T417 205Q417 258 383 293T294 328Q239 328 205 293T170 204Q170 149 204 114T294 78Q348 78 382 114Z" />
<glyph unicode="7" glyph-name="seven" horiz-adv-x="506" d="M497 700L199 0H84L338 597H41V700H497Z" />
<glyph unicode="8" glyph-name="eight" horiz-adv-x="605" d="M491 355T519 308T547 200Q547 137 517 89T432 13T303 -14Q229 -14 174 13T88 88T58 200Q58 261 86 308T165 383Q130 408 110 444T90 525Q90 574 112 617T183 687T303 714Q374 714 421 687T489 617T511
525Q511 480 493 444T441 382Q491 355 519 308ZM251 622T222 596T193 525Q193 483 222 455T303 426Q353 426 381 454T409 525Q409 569 382 595T303 622Q251 622 222 596ZM367 82T403 115T440 204Q440 260 404 295T303 330Q238 330 202 295T165 204Q165 148 201
115T303 82Q367 82 403 115Z" />
<glyph unicode="9" glyph-name="nine" horiz-adv-x="565" d="M347 714T401 682T483 590T512 454Q512 352 467 262T353 106T208 0L133 65Q209 104 279 170T383 317Q331 280 252 280Q193 280 146 307T72 383T45 491Q45 556 73 606T154 685T275 714Q347 714 401 682ZM328
373T363 408T398 496Q398 550 363 585T274 620Q220 620 186 584T152 495Q152 443 186 408T274 373Q328 373 363 408Z" />
<glyph unicode=":" glyph-name="colon" horiz-adv-x="214" d="M48 495H166V376H48V495ZM48 119H166V0H48V119Z" />
<glyph unicode=";" glyph-name="semicolon" horiz-adv-x="222" d="M59 -113L98 0H56V119H174V11L117 -113H59ZM56 495H174V376H56V495Z" />
<glyph unicode="&lt;" glyph-name="less" horiz-adv-x="414" d="M38 232V326L392 487V394L126 279L392 165V72L38 232Z" />
<glyph unicode="=" glyph-name="equal" horiz-adv-x="445" d="M43 398H402V315H43V398ZM43 239H402V156H43V239Z" />
<glyph unicode="&gt;" glyph-name="greater" horiz-adv-x="415" d="M22 165L288 279L22 394V487L376 326V232L22 72V165Z" />
<glyph unicode="?" glyph-name="question" horiz-adv-x="464" d="M142 205Q142 261 162 299T224 383Q267 431 283 457T299 521Q299 565 270 588T198 612Q132 612 63 574L52 671Q89 692 130 703T224 714Q285 714 328 691T395 627T418 537Q418 487 397 450T329 361Q289
316 271 284T252 211V187H142V205ZM138 119H255V0H138V119Z" />
<glyph unicode="@" glyph-name="at" horiz-adv-x="724" d="M182 -87T116 -19T49 170Q49 276 100 364T239 502T426 553Q543 553 609 485T675 300Q675 215 640 155T533 94Q511 94 501 104T490 145Q490 170 496 196T517 274Q534 332 545 379Q523 402 493 417T424
432Q363 432 304 391T207 285T169 153Q169 105 191 73T260 40Q306 40 357 71T440 156Q437 135 437 121Q437 91 451 67T495 42Q519 42 553 58T614 96L617 93Q567 11 482 -38T297 -87Q182 -87 116 -19ZM271 106T260 124T249 173Q249 225 278 270T351 343T433 371Q470
371 478 349Q469 297 437 240T365 144T293 106Q271 106 260 124Z" />
<glyph unicode="A" glyph-name="A" horiz-adv-x="620" d="M441 179H178L115 0H5L255 700H364L615 0H504L441 179ZM407 276L310 551L213 276H407Z" />
<glyph unicode="B" glyph-name="B" horiz-adv-x="609" d="M511 364T545 318T580 200Q580 107 520 54T355 0H79V700H318Q416 700 467 657T519 530Q519 479 500 441T445 382Q511 364 545 318ZM188 416H303Q355 416 382 437T409 509Q409 560 382 581T303 603H188V416ZM400
98T432 124T464 207Q464 318 342 318H188V98H342Q400 98 432 124Z" />
<glyph unicode="C" glyph-name="C" horiz-adv-x="613" d="M290 -14T209 31T83 158T37 350Q37 459 83 541T211 669T397 714Q449 714 496 703T581 673L570 571Q479 612 396 612Q319 612 266 578T185 485T157 350Q157 274 184 215T264 122T393 88Q442 88 484 98T570
129L581 26Q492 -14 393 -14Q290 -14 209 31Z" />
<glyph unicode="D" glyph-name="D" horiz-adv-x="724" d="M79 700H339Q440 700 519 658T642 537T686 350Q686 242 642 163T519 42T339 0H79V700ZM339 98Q449 98 507 165T566 350Q566 467 508 534T339 602H188V98H339Z" />
<glyph unicode="E" glyph-name="E" horiz-adv-x="560" d="M79 700H515V598H189V417H445V315H189V102H524V0H79V700Z" />
<glyph unicode="F" glyph-name="F" horiz-adv-x="524" d="M79 700H507V598H188V417H434V315H188V0H79V700Z" />
<glyph unicode="G" glyph-name="G" horiz-adv-x="669" d="M283 -14T204 31T81 159T37 351Q37 459 83 541T213 669T401 714Q454 714 505 703T596 674L585 574Q493 612 403 612Q281 612 219 540T157 351Q157 231 219 160T402 88Q462 88 510 103V257H406V351H619V39Q578
15 517 1T385 -14Q283 -14 204 31Z" />
<glyph unicode="H" glyph-name="H" horiz-adv-x="716" d="M79 700H188V416H528V700H637V0H528V313H188V0H79V700Z" />
<glyph unicode="I" glyph-name="I" horiz-adv-x="266" d="M79 700H188V0H79V700Z" />
<glyph unicode="J" glyph-name="J" horiz-adv-x="266" d="M-13 -78Q36 -78 57 -57T79 15V700H188V-10Q188 -94 148 -133T29 -172H-1L-13 -78Z" />
<glyph unicode="K" glyph-name="K" horiz-adv-x="592" d="M79 700H188V0H79V700ZM198 371L457 700H587L323 372L588 0H457L198 371Z" />
<glyph unicode="L" glyph-name="L" horiz-adv-x="501" d="M79 700H188V98H495V0H79V700Z" />
<glyph unicode="M" glyph-name="M" horiz-adv-x="821" d="M661 0L597 503L412 158L224 502L160 0H46L142 700H233L411 365L588 700H680L775 0H661Z" />
<glyph unicode="N" glyph-name="N" horiz-adv-x="705" d="M79 700H191L517 207V700H627V0H535L188 522V0H79V700Z" />
<glyph unicode="O" glyph-name="O" horiz-adv-x="766" d="M283 -14T205 31T83 158T38 350Q38 459 82 541T205 669T383 714Q483 714 561 669T683 542T728 350Q728 241 684 159T561 31T383 -14Q283 -14 205 31ZM457 92T508 125T586 217T612 350Q612 424 586 482T509
574T383 608Q309 608 258 575T180 483T153 350Q153 276 179 218T257 126T383 92Q457 92 508 125Z" />
<glyph unicode="P" glyph-name="P" horiz-adv-x="582" d="M79 700H317Q559 700 559 473Q559 357 497 301T319 244H191V0H79V700ZM304 338Q376 338 412 371T448 472Q448 541 413 573T303 606H191V338H304Z" />
<glyph unicode="Q" glyph-name="Q" horiz-adv-x="766" d="M728 211T655 114L719 52L654 -16L588 48Q501 -14 383 -14Q283 -14 205 31T83 158T38 350Q38 459 82 541T205 669T383 714Q483 714 561 669T683 542T728 350Q728 211 655 114ZM456 92T508 125L424 207L489
274L573 193Q612 258 612 350Q612 424 586 482T509 574T383 608Q309 608 258 575T180 483T153 350Q153 276 179 218T257 126T383 92Q456 92 508 125Z" />
<glyph unicode="R" glyph-name="R" horiz-adv-x="613" d="M79 700H318Q432 700 496 647T560 487Q560 350 439 292L596 0H469L330 267H325H191V0H79V700ZM303 362Q375 362 410 394T446 484Q446 543 411 574T305 606H191V362H303Z" />
<glyph unicode="S" glyph-name="S" horiz-adv-x="582" d="M219 -14T154 0T50 34L64 149Q118 123 179 106T299 88Q362 88 397 111T432 181Q432 216 414 238T360 277T258 315Q192 336 149 359T79 422T52 520Q52 607 117 660T304 714Q365 714 423 701T526 667L514
554Q455 584 404 598T298 613Q237 613 202 591T167 525Q167 494 184 474T231 439T319 407Q438 371 495 321T552 185Q552 98 488 42T280 -14Q219 -14 154 0Z" />
<glyph unicode="T" glyph-name="T" horiz-adv-x="542" d="M216 598H15V700H527V598H325V0H216V598Z" />
<glyph unicode="U" glyph-name="U" horiz-adv-x="721" d="M217 -14T144 68T71 298V700H180V327Q180 214 218 151T361 88Q466 88 504 151T542 327V700H651V298Q651 151 578 69T361 -14Q217 -14 144 68Z" />
<glyph unicode="V" glyph-name="V" horiz-adv-x="614" d="M612 700L361 0H252L2 700H115L307 154L499 700H612Z" />
<glyph unicode="W" glyph-name="W" horiz-adv-x="953" d="M7 700H121L265 157L430 692H525L692 162L834 700H948L747 0H641L477 522L314 0H204L7 700Z" />
<glyph unicode="X" glyph-name="X" horiz-adv-x="607" d="M242 356L9 700H132L304 446L475 700H598L365 356L606 0H482L304 264L125 0H1L242 356Z" />
<glyph unicode="Y" glyph-name="Y" horiz-adv-x="583" d="M592 700L346 295V0H237V295L-10 700H112L291 396L470 700H592Z" />
<glyph unicode="Z" glyph-name="Z" horiz-adv-x="549" d="M181 98H537V0H9L368 602H54V700H542L181 98Z" />
<glyph unicode="[" glyph-name="bracketleft" horiz-adv-x="330" d="M69 750H326V665H164V-50H326V-135H69V750Z" />
<glyph unicode="\" glyph-name="backslash" horiz-adv-x="318" d="M-9 700H99L347 -85H239L-9 700Z" />
<glyph unicode="]" glyph-name="bracketright" horiz-adv-x="330" d="M5 -50H166V665H5V750H262V-135H5V-50Z" />
<glyph unicode="^" glyph-name="asciicircum" horiz-adv-x="512" d="M50 545L256 759L462 545V431L256 623L50 431V545Z" />
<glyph unicode="_" glyph-name="underscore" horiz-adv-x="563" d="M1 -36H561V-125H1V-36Z" />
<glyph unicode="`" glyph-name="grave" horiz-adv-x="471" d="M140 648V753L331 642V573L140 648Z" />
<glyph unicode="a" glyph-name="a" horiz-adv-x="488" d="M106 -10T65 30T23 135Q23 200 68 239T179 294T311 312Q310 369 287 390T211 412Q179 412 148 403T78 370L66 455Q103 478 147 490T239 503Q331 503 373 453T415 283V168Q415 129 418 110T432 83T466 75H478L466
-10H443Q391 -10 365 6T322 56Q295 25 256 8T171 -10Q106 -10 65 30ZM232 72T261 86T311 125V241Q131 235 131 140Q131 72 203 72Q232 72 261 86Z" />
<glyph unicode="b" glyph-name="b" horiz-adv-x="562" d="M377 503T427 468T504 375T531 247Q531 176 503 118T425 25T309 -10Q264 -10 226 5T160 48L154 0H59V750H163V446Q191 473 228 488T309 503Q377 503 427 468ZM354 79T389 126T425 247Q425 321 390 367T295
414Q233 414 196 370T158 247Q158 166 195 123T295 79Q354 79 389 126Z" />
<glyph unicode="c" glyph-name="c" horiz-adv-x="454" d="M206 -10T148 23T61 115T31 245Q31 319 60 377T148 470T293 504Q370 504 427 474L415 386Q359 414 297 414Q221 414 180 370T138 247Q138 171 179 125T296 79Q359 79 416 110L428 24Q404 9 366 0T288 -10Q206
-10 148 23Z" />
<glyph unicode="d" glyph-name="d" horiz-adv-x="562" d="M503 750V0H407L401 47Q346 -10 257 -10Q191 -10 139 24T59 117T30 246Q30 315 57 374T136 468T257 503Q345 503 399 450V750H503ZM332 79T369 122T407 246Q407 323 369 368T274 414Q211 414 174 368T137
246Q137 174 174 127T274 79Q332 79 369 122Z" />
<glyph unicode="e" glyph-name="e" horiz-adv-x="513" d="M212 -10T152 25T61 119T30 251Q30 320 58 377T141 469T271 503Q369 503 427 446T485 292Q485 266 479 236H137Q147 153 192 116T308 79Q387 79 453 113L463 28Q383 -10 297 -10Q212 -10 152 25ZM378 307Q378
354 351 384T270 414Q169 414 143 307H378Z" />
<glyph unicode="f" glyph-name="f" horiz-adv-x="335" d="M92 411H13L25 494H92V606Q92 673 129 711T236 750Q277 750 315 739L303 653Q278 660 257 660Q196 660 196 593V494H319V411H196V0H92V411Z" />
<glyph unicode="g" glyph-name="g" horiz-adv-x="499" d="M153 -251T89 -213T25 -106Q25 -32 108 10Q62 35 62 76Q62 123 117 147Q77 172 56 214T35 310Q35 364 59 408T129 478T238 504Q304 504 355 469Q403 495 471 495H489L479 428H447Q423 428 403 423Q440
375 440 310Q440 255 416 210T346 139T238 113Q207 113 177 121Q159 115 159 99Q159 87 173 79T220 67L332 50Q414 38 457 3T500 -93Q500 -168 436 -209T258 -251Q153 -251 89 -213ZM288 193T315 224T343 309Q343 361 316 392T238 424Q187 424 160 393T132 309Q132
256 159 225T238 193Q288 193 315 224ZM401 -165T401 -98Q401 -71 379 -57T309 -33L182 -13Q118 -40 118 -88Q118 -127 156 -146T264 -165Q401 -165 401 -98Z" />
<glyph unicode="h" glyph-name="h" horiz-adv-x="546" d="M395 503T443 442T491 275V0H387V265Q387 342 360 378T276 414Q207 414 164 358V0H59V750H164V454Q193 478 225 490T301 503Q395 503 443 442Z" />
<glyph unicode="i" glyph-name="i" horiz-adv-x="224" d="M60 700H164V590H60V700ZM60 494H164V0H60V494Z" />
<glyph unicode="j" glyph-name="j" horiz-adv-x="224" d="M60 700H164V590H60V700ZM-8 -159Q20 -157 34 -150T54 -123T60 -67V494H164V-109Q164 -231 36 -239L3 -242L-8 -159Z" />
<glyph unicode="k" glyph-name="k" horiz-adv-x="464" d="M59 750H163V280L333 494H455L266 261L460 0H337L163 238V0H59V750Z" />
<glyph unicode="l" glyph-name="l" horiz-adv-x="247" d="M122 -10T91 25T59 114V750H164V165Q164 123 169 105T188 81T235 75L222 -10H187Q122 -10 91 25Z" />
<glyph unicode="m" glyph-name="m" horiz-adv-x="874" d="M723 503T771 447T819 284V0H714V280Q714 350 689 382T608 414Q492 414 492 281V0H387V270Q387 348 360 381T280 414Q203 414 164 360V0H60V494H145L153 447Q221 503 304 503Q410 503 456 418Q510 503
627 503Q723 503 771 447Z" />
<glyph unicode="n" glyph-name="n" horiz-adv-x="556" d="M405 503T453 443T501 274V0H397V270Q397 345 370 379T281 414Q243 414 213 400T164 359V0H60V494H149L155 449Q222 503 306 503Q405 503 453 443Z" />
<glyph unicode="o" glyph-name="o" horiz-adv-x="558" d="M202 -10T146 24T60 117T30 247Q30 318 59 376T145 469T279 504Q355 504 411 470T498 377T528 247Q528 176 498 118T412 25T279 -10Q202 -10 146 24ZM347 79T384 124T421 247Q421 325 384 370T279 415Q211
415 174 370T137 247Q137 169 174 124T279 79Q347 79 384 124Z" />
<glyph unicode="p" glyph-name="p" horiz-adv-x="563" d="M381 503T430 469T506 377T532 247Q532 175 507 117T433 24T314 -10Q217 -10 164 46V-242H60V494H142L154 436Q216 503 314 503Q381 503 430 469ZM357 79T391 124T426 247Q426 324 391 369T296 414Q233
414 196 370T159 247Q159 165 195 122T296 79Q357 79 391 124Z" />
<glyph unicode="q" glyph-name="q" horiz-adv-x="563" d="M504 494V-242H399V45Q347 -10 255 -10Q183 -10 133 24T57 116T31 247Q31 316 57 374T134 468T254 503Q306 503 343 487T411 437L423 494H504ZM332 79T368 122T405 247Q405 326 369 370T270 414Q208 414
173 369T138 247Q138 169 173 124T270 79Q332 79 368 122Z" />
<glyph unicode="r" glyph-name="r" horiz-adv-x="322" d="M60 494H152L159 425Q225 504 297 504Q308 504 320 502L311 393Q295 397 275 397Q241 397 211 381T168 344V0H60V494Z" />
<glyph unicode="s" glyph-name="s" horiz-adv-x="418" d="M106 -10T32 30L43 126Q72 105 111 91T196 76Q239 76 262 90T285 132Q285 163 261 179T189 211Q141 227 110 242T59 286T39 358Q39 421 86 462T224 504Q302 504 366 469L355 377Q324 400 294 412T226 425Q187
425 165 410T143 366Q143 345 154 332T186 310T252 285Q316 263 353 231T391 137Q391 73 345 32T200 -10Q106 -10 32 30Z" />
<glyph unicode="t" glyph-name="t" horiz-adv-x="340" d="M161 -10T129 25T96 113V411H17L26 494H96V611L200 621V494H321V411H200V166Q200 120 205 103T228 80T292 75H319L311 -10H226Q161 -10 129 25Z" />
<glyph unicode="u" glyph-name="u" horiz-adv-x="536" d="M476 494V0H381L375 43Q327 -10 249 -10Q151 -10 103 48T55 216V494H159V230Q159 154 184 117T267 80Q300 80 327 92T372 129V494H476Z" />
<glyph unicode="v" glyph-name="v" horiz-adv-x="494" d="M6 494H116L247 122L377 494H487L299 0H196L6 494Z" />
<glyph unicode="w" glyph-name="w" horiz-adv-x="725" d="M11 494H124L214 121L314 481H412L511 121L602 494H715L568 0H465L363 347L260 0H158L11 494Z" />
<glyph unicode="x" glyph-name="x" horiz-adv-x="481" d="M179 247L13 494H134L243 321L344 494H467L304 251L471 0H350L240 173L132 0H11L179 247Z" />
<glyph unicode="y" glyph-name="y" horiz-adv-x="519" d="M210 27L4 494H121L263 148L398 494H514L208 -242H98L210 27Z" />
<glyph unicode="z" glyph-name="z" horiz-adv-x="471" d="M189 90H448V0H20L281 404H39V494H450L189 90Z" />
<glyph unicode="{" glyph-name="braceleft" horiz-adv-x="321" d="M235 664T209 641T182 566Q182 543 186 491Q190 439 190 418Q190 373 171 347T115 307Q152 293 171 267T190 196Q190 175 186 123Q182 71 182 48Q182 -4 208 -27T287 -50H314V-136H277Q186 -136
143 -95T99 18Q99 39 103 89Q107 141 107 166Q107 222 89 247T24 273V341Q70 341 88 366T107 448Q107 473 103 525Q99 575 99 596Q99 667 142 708T277 750H314V664H287Q235 664 209 641Z" />
<glyph unicode="|" glyph-name="bar" horiz-adv-x="227" d="M62 750H165V-209H62V750Z" />
<glyph unicode="}" glyph-name="braceright" horiz-adv-x="321" d="M214 392T232 367T296 341V273Q250 273 232 248T214 166Q214 141 218 89Q222 39 222 18Q222 -53 178 -94T43 -136H6V-50H33Q86 -50 112 -27T139 48Q139 71 135 123Q131 175 131 196Q131 241 150
267T206 307Q169 321 150 347T131 418Q131 439 135 491Q139 543 139 566Q139 618 113 641T33 664H6V750H43Q134 750 178 709T222 596Q222 575 218 525Q214 473 214 448Q214 392 232 367Z" />
<glyph unicode="~" glyph-name="asciitilde" horiz-adv-x="463" d="M294 292T276 298T233 317Q208 329 194 334T163 339Q145 339 135 328T124 297H43Q45 360 71 393T147 426Q170 426 188 420T234 400Q257 389 271 384T301 378Q319 378 329 389T340 420H420Q418
358 392 325T317 292Q294 292 276 298Z" />
<glyph unicode="&#xa0;" glyph-name="uni00A0" horiz-adv-x="225" />
<glyph unicode="&#xa1;" glyph-name="exclamdown" horiz-adv-x="237" d="M181 500V381H64V500H181ZM169 313V286L185 -200H61L77 286V313H169Z" />
<glyph unicode="&#xa2;" glyph-name="cent" horiz-adv-x="454" d="M389 -1T317 -9L325 -144H238L246 -7Q143 5 87 74T31 245Q31 349 85 418T246 501L238 634H325L317 503Q379 499 427 474L415 386Q359 414 297 414Q221 414 180 370T138 247Q138 171 179 125T296
79Q359 79 416 110L428 24Q389 -1 317 -9Z" />
<glyph unicode="&#xa3;" glyph-name="sterling" horiz-adv-x="520" d="M491 103V0H49Q83 85 101 153T129 314H52V394H137L147 491Q170 714 356 714Q424 714 486 679L476 565Q446 590 420 601T363 613Q315 613 288 583T256 499L245 394H429V314H237Q229 243 218
195T188 103H491Z" />
<glyph unicode="&#xa4;" glyph-name="currency" horiz-adv-x="716" d="M619 301T604 259T562 183L660 85L619 46L522 144Q453 92 358 92Q262 92 194 144L96 46L56 85L153 183Q97 251 97 348Q97 445 153 513L56 611L96 650L195 552Q263 604 358 604Q452 604 521
552L619 650L660 611L562 512Q589 479 604 437T619 348Q619 301 604 259ZM432 187T472 232T513 348Q513 419 473 464T358 509Q284 509 243 464T202 348Q202 277 243 232T358 187Q432 187 472 232Z" />
<glyph unicode="&#xa5;" glyph-name="yen" horiz-adv-x="583" d="M384 357H493V277H346V217H493V137H346V0H237V137H90V217H237V277H90V357H199L-10 700H112L291 396L470 700H592L384 357Z" />
<glyph unicode="&#xa6;" glyph-name="brokenbar" horiz-adv-x="229" d="M63 750H166V342H63V750ZM63 198H166V-210H63V198Z" />
<glyph unicode="&#xa7;" glyph-name="section" horiz-adv-x="458" d="M166 -84T127 -73T63 -45L75 36Q107 16 142 4T210 -9Q253 -9 277 10T302 66Q302 101 275 121T192 164Q143 185 113 202T60 251T38 331Q38 429 137 479Q82 518 82 596Q82 663 126 706T250 750Q291
750 330 738T395 710L384 629Q352 649 316 662T248 675Q209 675 185 657T160 609Q160 576 185 556T265 511Q314 489 345 469T398 416T420 332Q420 290 397 251T323 187Q376 152 376 75Q376 10 336 -37T206 -84Q166 -84 127 -73ZM302 235T320 260T338 318Q338 358
302 385T195 443Q117 414 117 347Q117 303 153 278T274 224Q302 235 320 260Z" />
<glyph unicode="&#xa8;" glyph-name="dieresis" horiz-adv-x="486" d="M100 675H190V591H100V675ZM296 675H386V591H296V675Z" />
<glyph unicode="&#xa9;" glyph-name="copyright" horiz-adv-x="712" d="M266 37T196 78T85 193T45 365Q45 462 85 536T195 651T356 692Q446 692 516 652T627 537T667 365Q667 268 627 194T517 78T356 37Q266 37 196 78ZM437 92T492 127T576 224T604 365Q604 444
576 505T493 602T356 637Q235 637 172 562T108 365Q108 243 171 168T356 92Q437 92 492 127ZM294 194T249 240T204 363Q204 440 249 486T365 533Q389 533 414 527T460 512L452 442Q404 462 365 462Q325 462 303 435T281 363Q281 319 303 292T365 264Q406 264 452
286L460 216Q441 206 415 200T365 194Q294 194 249 240Z" />
<glyph unicode="&#xaa;" glyph-name="ordfeminine" horiz-adv-x="354" d="M81 434T57 456T32 518Q32 570 80 594T196 624Q195 640 185 648T148 656Q112 656 63 638L57 707Q115 728 171 728Q224 728 254 701T284 622V540Q284 516 288 511T306 505H318L312 434H276Q230
434 209 465Q194 450 170 442T120 434Q81 434 57 456ZM175 496T197 510V567Q124 560 124 524Q124 510 132 503T154 496Q175 496 197 510Z" />
<glyph unicode="&#xab;" glyph-name="guillemotleft" horiz-adv-x="593" d="M13 284L169 490H294L138 284L294 78H169L13 284ZM273 284L429 490H554L398 284L554 78H429L273 284Z" />
<glyph unicode="&#xac;" glyph-name="logicalnot" horiz-adv-x="517" d="M384 322H43V406H473V151H384V322Z" />
<glyph unicode="&#xad;" glyph-name="uni00AD" horiz-adv-x="444" d="M67 356H377V266H67V356Z" />
<glyph unicode="&#xae;" glyph-name="registered" horiz-adv-x="712" d="M267 36T196 77T85 193T45 365Q45 463 85 537T195 652T356 693Q446 693 516 653T627 538T667 365Q667 268 627 193T517 77T356 36Q267 36 196 77ZM436 91T492 126T576 224T604 365Q604 444
576 505T493 602T356 638Q275 638 220 603T136 506T108 365Q108 286 136 224T220 127T356 91Q436 91 492 126ZM236 534H358Q412 534 442 508T472 431Q472 402 458 379T421 343L493 207H415L357 322H309V207H236V534ZM351 389Q374 389 385 400T396 432Q396 452 385
463T351 474H309V389H351Z" />
<glyph unicode="&#xaf;" glyph-name="overscore" horiz-adv-x="523" d="M100 666H424V591H100V666Z" />
<glyph unicode="&#xb0;" glyph-name="degree" horiz-adv-x="290" d="M82 482T46 521T9 618Q9 676 45 715T145 755Q208 755 244 716T281 618Q281 560 245 521T145 482Q82 482 46 521ZM183 531T203 556T224 618Q224 656 204 681T145 706Q108 706 87 681T66 618Q66
581 87 556T145 531Q183 531 203 556Z" />
<glyph unicode="&#xb1;" glyph-name="plusminus" horiz-adv-x="457" d="M188 313H49V393H188V526H269V393H408V313H269V180H188V313ZM49 134H408V54H49V134Z" />
<glyph unicode="&#xb2;" glyph-name="uni00B2" horiz-adv-x="329" d="M297 462V386H34L145 544Q170 580 179 600T188 642Q188 665 174 679T135 694Q110 694 88 683T41 651L34 734Q91 772 153 772Q209 772 243 740T278 656Q278 622 266 592T219 513L183 462H297Z" />
<glyph unicode="&#xb3;" glyph-name="uni00B3" horiz-adv-x="345" d="M267 569T284 545T302 486Q302 434 264 403T164 372Q94 372 35 403L54 479Q80 463 102 455T150 446Q179 446 195 458T211 492Q211 542 147 542H118V613H148Q173 613 187 624T202 656Q202 675
189 686T149 698Q106 698 63 668L56 746Q108 772 169 772Q225 772 257 744T290 671Q290 609 236 581Q267 569 284 545Z" />
<glyph unicode="&#xb4;" glyph-name="acute" horiz-adv-x="471" d="M140 642L331 753V648L140 573V642Z" />
<glyph unicode="&#xb5;" glyph-name="uni00B5" horiz-adv-x="608" d="M74 494H178V212Q178 146 204 113T288 80Q323 80 349 92T397 131V494H500V171Q500 116 509 96T546 75H565L551 -10H517Q439 -10 410 54Q383 23 352 7T280 -10Q218 -10 178 19V-242H74V494Z" />
<glyph unicode="&#xb6;" glyph-name="paragraph" horiz-adv-x="623" d="M305 237Q216 242 155 276T63 362T33 471Q33 530 65 582T163 667T321 700H580V616H508V0H443V616H358V0H305V237Z" />
<glyph unicode="&#xb7;" glyph-name="middot" horiz-adv-x="235" d="M56 343H180V213H56V343Z" />
<glyph unicode="&#xb8;" glyph-name="cedilla" horiz-adv-x="389" d="M241 -54T265 -76T289 -138Q289 -182 258 -207T180 -232Q134 -232 100 -213L117 -159Q148 -176 181 -176Q203 -176 215 -167T228 -140Q228 -103 178 -103Q155 -103 131 -110L158 0H210L193
-54H199Q241 -54 265 -76Z" />
<glyph unicode="&#xb9;" glyph-name="uni00B9" horiz-adv-x="242" d="M101 659Q72 634 39 626L33 698Q57 706 82 723T121 758H184V386H101V659Z" />
<glyph unicode="&#xba;" glyph-name="ordmasculine" horiz-adv-x="373" d="M139 434T104 454T50 508T31 581Q31 621 49 654T103 708T186 728Q234 728 269 708T323 655T342 581Q342 542 324 509T270 455T186 434Q139 434 104 454ZM217 501T235 524T253 581Q253
616 235 638T186 661Q155 661 138 639T120 581Q120 547 137 524T186 501Q217 501 235 524Z" />
<glyph unicode="&#xbb;" glyph-name="guillemotright" horiz-adv-x="593" d="M455 284L299 490H424L580 284L424 78H299L455 284ZM195 284L39 490H164L320 284L164 78H39L195 284Z" />
<glyph unicode="&#xbc;" glyph-name="onequarter" horiz-adv-x="659" d="M354 601Q325 576 292 568L286 640Q310 648 335 665T374 700H437V328H354V601ZM475 700H566L159 0H68L475 700ZM621 144V79H572V0H498V79H296L505 372H572V144H621ZM498 256L471 216L420
144H498V256Z" />
<glyph unicode="&#xbd;" glyph-name="onehalf" horiz-adv-x="700" d="M354 601Q325 576 292 568L286 640Q310 648 335 665T374 700H437V328H354V601ZM466 700H557L150 0H59L466 700ZM671 76V0H408L519 158Q544 194 553 214T562 256Q562 279 548 293T509 308Q484
308 462 297T415 265L408 348Q465 386 527 386Q583 386 617 354T652 270Q652 236 640 206T593 127L557 76H671Z" />
<glyph unicode="&#xbe;" glyph-name="threequarters" horiz-adv-x="724" d="M267 511T284 487T302 428Q302 376 264 345T164 314Q94 314 35 345L54 421Q80 405 102 397T150 388Q179 388 195 400T211 434Q211 484 147 484H118V555H148Q173 555 187 566T202 598Q202
617 189 628T149 640Q106 640 63 610L56 688Q108 714 169 714Q225 714 257 686T290 613Q290 551 236 523Q267 511 284 487ZM545 700H636L229 0H138L545 700ZM687 144V79H638V0H564V79H362L571 372H638V144H687ZM564 256L537 216L486 144H564V256Z" />
<glyph unicode="&#xbf;" glyph-name="questiondown" horiz-adv-x="411" d="M317 381H200V500H317V381ZM313 295Q313 239 293 201T231 117Q188 69 172 43T156 -21Q156 -65 185 -88T257 -112Q323 -112 392 -74L403 -171Q366 -192 325 -203T231 -214Q170 -214 127
-191T60 -127T37 -37Q37 13 58 50T126 139Q166 184 184 216T203 289V313H313V295Z" />
<glyph unicode="&#xc0;" glyph-name="Agrave" horiz-adv-x="620" d="M441 179H178L115 0H5L255 700H364L615 0H504L441 179ZM407 276L310 551L213 276H407ZM214 820V920L405 825V762L214 820Z" />
<glyph unicode="&#xc1;" glyph-name="Aacute" horiz-adv-x="620" d="M441 179H178L115 0H5L255 700H364L615 0H504L441 179ZM407 276L310 551L213 276H407ZM215 825L406 920V820L215 762V825Z" />
<glyph unicode="&#xc2;" glyph-name="Acircumflex" horiz-adv-x="620" d="M441 179H178L115 0H5L255 700H364L615 0H504L441 179ZM407 276L310 551L213 276H407ZM181 816L310 907L439 816V750L310 818L181 750V816Z" />
<glyph unicode="&#xc3;" glyph-name="Atilde" horiz-adv-x="620" d="M441 179H178L115 0H5L255 700H364L615 0H504L441 179ZM407 276L310 551L213 276H407ZM379 784T361 789T318 806Q274 825 255 825Q239 825 230 816T221 789H151Q151 839 170 865T225 892Q241
892 257 887T302 869Q307 867 328 859T365 850Q381 850 390 859T399 886H469Q469 836 450 810T395 784Q379 784 361 789Z" />
<glyph unicode="&#xc4;" glyph-name="Adieresis" horiz-adv-x="620" d="M441 179H178L115 0H5L255 700H364L615 0H504L441 179ZM407 276L310 551L213 276H407ZM167 869H257V790H167V869ZM363 869H453V790H363V869Z" />
<glyph unicode="&#xc5;" glyph-name="Aring" horiz-adv-x="620" d="M441 179H178L115 0H5L255 700H364L615 0H504L441 179ZM407 276L310 551L213 276H407ZM262 755T234 783T205 853Q205 893 233 922T310 951Q359 951 387 923T415 853Q415 812 387 784T310 755Q262
755 234 783ZM331 803T346 817T361 853Q361 874 346 888T310 903Q289 903 274 889T259 853Q259 831 274 817T310 803Q331 803 346 817Z" />
<glyph unicode="&#xc6;" glyph-name="AE" horiz-adv-x="866" d="M830 102V0H394V175H187L101 0H-9L333 700H821V597H515V417H751V315H515V102H830ZM394 281V595L239 281H394Z" />
<glyph unicode="&#xc7;" glyph-name="Ccedilla" horiz-adv-x="613" d="M498 -11T404 -14L391 -54H397Q439 -54 463 -76T487 -138Q487 -182 456 -207T378 -232Q332 -232 298 -213L315 -159Q346 -176 379 -176Q401 -176 413 -167T426 -140Q426 -103 376 -103Q353
-103 329 -110L353 -12Q260 -4 189 43T77 169T37 350Q37 459 83 541T211 669T397 714Q449 714 496 703T581 673L570 571Q479 612 396 612Q319 612 266 578T185 485T157 350Q157 274 184 215T264 122T393 88Q442 88 484 98T570 129L581 26Q498 -11 404 -14Z" />
<glyph unicode="&#xc8;" glyph-name="Egrave" horiz-adv-x="560" d="M79 700H515V598H189V417H445V315H189V102H524V0H79V700ZM211 820V920L402 825V762L211 820Z" />
<glyph unicode="&#xc9;" glyph-name="Eacute" horiz-adv-x="560" d="M79 700H515V598H189V417H445V315H189V102H524V0H79V700ZM212 825L403 920V820L212 762V825Z" />
<glyph unicode="&#xca;" glyph-name="Ecircumflex" horiz-adv-x="560" d="M79 700H515V598H189V417H445V315H189V102H524V0H79V700ZM178 816L307 907L436 816V750L307 818L178 750V816Z" />
<glyph unicode="&#xcb;" glyph-name="Edieresis" horiz-adv-x="560" d="M79 700H515V598H189V417H445V315H189V102H524V0H79V700ZM164 869H254V790H164V869ZM360 869H450V790H360V869Z" />
<glyph unicode="&#xcc;" glyph-name="Igrave" horiz-adv-x="266" d="M79 700H188V0H79V700ZM38 820V920L229 825V762L38 820Z" />
<glyph unicode="&#xcd;" glyph-name="Iacute" horiz-adv-x="266" d="M79 700H188V0H79V700ZM39 825L230 920V820L39 762V825Z" />
<glyph unicode="&#xce;" glyph-name="Icircumflex" horiz-adv-x="266" d="M79 700H188V0H79V700ZM5 816L134 907L263 816V750L134 818L5 750V816Z" />
<glyph unicode="&#xcf;" glyph-name="Idieresis" horiz-adv-x="266" d="M79 700H188V0H79V700ZM-9 869H81V790H-9V869ZM187 869H277V790H187V869Z" />
<glyph unicode="&#xd0;" glyph-name="Eth" horiz-adv-x="730" d="M88 311H20V400H88V700H347Q447 700 525 658T648 537T692 350Q692 242 648 163T526 42T347 0H88V311ZM347 102Q457 102 515 168T573 350Q573 466 515 532T347 598H194V400H322V311H194V102H347Z" />
<glyph unicode="&#xd1;" glyph-name="Ntilde" horiz-adv-x="705" d="M79 700H191L517 207V700H627V0H535L188 522V0H79V700ZM424 784T406 789T363 806Q319 825 300 825Q284 825 275 816T266 789H196Q196 839 215 865T270 892Q286 892 302 887T347 869Q352 867
373 859T410 850Q426 850 435 859T444 886H514Q514 836 495 810T440 784Q424 784 406 789Z" />
<glyph unicode="&#xd2;" glyph-name="Ograve" horiz-adv-x="766" d="M283 -14T205 31T83 158T38 350Q38 459 82 541T205 669T383 714Q483 714 561 669T683 542T728 350Q728 241 684 159T561 31T383 -14Q283 -14 205 31ZM457 92T508 125T586 217T612 350Q612 424
586 482T509 574T383 608Q309 608 258 575T180 483T153 350Q153 276 179 218T257 126T383 92Q457 92 508 125ZM287 820V920L478 825V762L287 820Z" />
<glyph unicode="&#xd3;" glyph-name="Oacute" horiz-adv-x="766" d="M283 -14T205 31T83 158T38 350Q38 459 82 541T205 669T383 714Q483 714 561 669T683 542T728 350Q728 241 684 159T561 31T383 -14Q283 -14 205 31ZM457 92T508 125T586 217T612 350Q612 424
586 482T509 574T383 608Q309 608 258 575T180 483T153 350Q153 276 179 218T257 126T383 92Q457 92 508 125ZM288 825L479 920V820L288 762V825Z" />
<glyph unicode="&#xd4;" glyph-name="Ocircumflex" horiz-adv-x="766" d="M283 -14T205 31T83 158T38 350Q38 459 82 541T205 669T383 714Q483 714 561 669T683 542T728 350Q728 241 684 159T561 31T383 -14Q283 -14 205 31ZM457 92T508 125T586 217T612 350Q612
424 586 482T509 574T383 608Q309 608 258 575T180 483T153 350Q153 276 179 218T257 126T383 92Q457 92 508 125ZM254 816L383 907L512 816V750L383 818L254 750V816Z" />
<glyph unicode="&#xd5;" glyph-name="Otilde" horiz-adv-x="766" d="M283 -14T205 31T83 158T38 350Q38 459 82 541T205 669T383 714Q483 714 561 669T683 542T728 350Q728 241 684 159T561 31T383 -14Q283 -14 205 31ZM457 92T508 125T586 217T612 350Q612 424
586 482T509 574T383 608Q309 608 258 575T180 483T153 350Q153 276 179 218T257 126T383 92Q457 92 508 125ZM452 784T434 789T391 806Q347 825 328 825Q312 825 303 816T294 789H224Q224 839 243 865T298 892Q314 892 330 887T375 869Q380 867 401 859T438 850Q454
850 463 859T472 886H542Q542 836 523 810T468 784Q452 784 434 789Z" />
<glyph unicode="&#xd6;" glyph-name="Odieresis" horiz-adv-x="766" d="M283 -14T205 31T83 158T38 350Q38 459 82 541T205 669T383 714Q483 714 561 669T683 542T728 350Q728 241 684 159T561 31T383 -14Q283 -14 205 31ZM457 92T508 125T586 217T612 350Q612
424 586 482T509 574T383 608Q309 608 258 575T180 483T153 350Q153 276 179 218T257 126T383 92Q457 92 508 125ZM240 869H330V790H240V869ZM436 869H526V790H436V869Z" />
<glyph unicode="&#xd7;" glyph-name="multiply" horiz-adv-x="418" d="M267 280L385 159L326 101L209 220L92 101L33 159L151 280L33 400L92 458L209 339L326 458L385 400L267 280Z" />
<glyph unicode="&#xd8;" glyph-name="Oslash" horiz-adv-x="766" d="M671 577T699 507T728 350Q728 241 684 159T561 31T383 -14Q288 -14 210 28L161 -44H66L147 74Q95 123 67 193T38 350Q38 459 82 541T205 669T383 714Q477 714 555 672L604 744H700L619 626Q671
577 699 507ZM153 295T167 248T210 167L494 583Q446 608 383 608Q309 608 258 575T180 483T153 350Q153 295 167 248ZM457 92T508 125T586 217T612 350Q612 463 555 533L271 117Q321 92 383 92Q457 92 508 125Z" />
<glyph unicode="&#xd9;" glyph-name="Ugrave" horiz-adv-x="721" d="M217 -14T144 68T71 298V700H180V327Q180 214 218 151T361 88Q466 88 504 151T542 327V700H651V298Q651 151 578 69T361 -14Q217 -14 144 68ZM265 820V920L456 825V762L265 820Z" />
<glyph unicode="&#xda;" glyph-name="Uacute" horiz-adv-x="721" d="M217 -14T144 68T71 298V700H180V327Q180 214 218 151T361 88Q466 88 504 151T542 327V700H651V298Q651 151 578 69T361 -14Q217 -14 144 68ZM266 825L457 920V820L266 762V825Z" />
<glyph unicode="&#xdb;" glyph-name="Ucircumflex" horiz-adv-x="721" d="M217 -14T144 68T71 298V700H180V327Q180 214 218 151T361 88Q466 88 504 151T542 327V700H651V298Q651 151 578 69T361 -14Q217 -14 144 68ZM232 816L361 907L490 816V750L361 818L232 750V816Z" />
<glyph unicode="&#xdc;" glyph-name="Udieresis" horiz-adv-x="721" d="M217 -14T144 68T71 298V700H180V327Q180 214 218 151T361 88Q466 88 504 151T542 327V700H651V298Q651 151 578 69T361 -14Q217 -14 144 68ZM218 869H308V790H218V869ZM414 869H504V790H414V869Z" />
<glyph unicode="&#xdd;" glyph-name="Yacute" horiz-adv-x="583" d="M592 700L346 295V0H237V295L-10 700H112L291 396L470 700H592ZM196 825L387 920V820L196 762V825Z" />
<glyph unicode="&#xde;" glyph-name="Thorn" horiz-adv-x="571" d="M79 700H191V549H336Q442 549 495 501T549 365Q549 277 496 229T336 180H191V0H79V700ZM325 274Q437 274 437 365Q437 411 410 433T325 455H191V274H325Z" />
<glyph unicode="&#xdf;" glyph-name="germandbls" horiz-adv-x="599" d="M308 -14T256 -2V81Q309 70 359 70Q410 70 440 92T470 154Q470 192 447 216T379 268Q335 296 312 320T289 381Q289 413 305 437T363 504Q391 532 402 550T413 595Q413 632 387 653T313 675Q254
675 224 641T193 544V0H90V411H17L26 494H90V542Q90 651 151 707T315 764Q407 764 461 722T516 609Q516 564 500 537T450 475Q417 439 406 424T395 391Q395 370 411 355T463 315Q516 282 546 248T576 157Q576 101 546 63T467 5T358 -14Q308 -14 256 -2Z" />
<glyph unicode="&#xe0;" glyph-name="agrave" horiz-adv-x="488" d="M106 -10T65 30T23 135Q23 200 68 239T179 294T311 312Q310 369 287 390T211 412Q179 412 148 403T78 370L66 455Q103 478 147 490T239 503Q331 503 373 453T415 283V168Q415 129 418 110T432
83T466 75H478L466 -10H443Q391 -10 365 6T322 56Q295 25 256 8T171 -10Q106 -10 65 30ZM232 72T261 86T311 125V241Q131 235 131 140Q131 72 203 72Q232 72 261 86ZM143 648V753L334 642V573L143 648Z" />
<glyph unicode="&#xe1;" glyph-name="aacute" horiz-adv-x="488" d="M106 -10T65 30T23 135Q23 200 68 239T179 294T311 312Q310 369 287 390T211 412Q179 412 148 403T78 370L66 455Q103 478 147 490T239 503Q331 503 373 453T415 283V168Q415 129 418 110T432
83T466 75H478L466 -10H443Q391 -10 365 6T322 56Q295 25 256 8T171 -10Q106 -10 65 30ZM232 72T261 86T311 125V241Q131 235 131 140Q131 72 203 72Q232 72 261 86ZM144 642L335 753V648L144 573V642Z" />
<glyph unicode="&#xe2;" glyph-name="acircumflex" horiz-adv-x="488" d="M106 -10T65 30T23 135Q23 200 68 239T179 294T311 312Q310 369 287 390T211 412Q179 412 148 403T78 370L66 455Q103 478 147 490T239 503Q331 503 373 453T415 283V168Q415 129 418 110T432
83T466 75H478L466 -10H443Q391 -10 365 6T322 56Q295 25 256 8T171 -10Q106 -10 65 30ZM232 72T261 86T311 125V241Q131 235 131 140Q131 72 203 72Q232 72 261 86ZM110 628L239 739L368 628V560L239 641L110 560V628Z" />
<glyph unicode="&#xe3;" glyph-name="atilde" horiz-adv-x="488" d="M106 -10T65 30T23 135Q23 200 68 239T179 294T311 312Q310 369 287 390T211 412Q179 412 148 403T78 370L66 455Q103 478 147 490T239 503Q331 503 373 453T415 283V168Q415 129 418 110T432
83T466 75H478L466 -10H443Q391 -10 365 6T322 56Q295 25 256 8T171 -10Q106 -10 65 30ZM232 72T261 86T311 125V241Q131 235 131 140Q131 72 203 72Q232 72 261 86ZM304 579T287 585T247 604Q243 606 230 612T205 622T184 625Q168 625 159 615T150 587H71Q73 643
95 672T157 702Q174 702 191 696T231 678Q252 668 266 663T294 657Q310 657 319 667T328 694H407Q405 638 383 609T321 579Q304 579 287 585Z" />
<glyph unicode="&#xe4;" glyph-name="adieresis" horiz-adv-x="488" d="M106 -10T65 30T23 135Q23 200 68 239T179 294T311 312Q310 369 287 390T211 412Q179 412 148 403T78 370L66 455Q103 478 147 490T239 503Q331 503 373 453T415 283V168Q415 129 418 110T432
83T466 75H478L466 -10H443Q391 -10 365 6T322 56Q295 25 256 8T171 -10Q106 -10 65 30ZM232 72T261 86T311 125V241Q131 235 131 140Q131 72 203 72Q232 72 261 86ZM96 675H186V591H96V675ZM292 675H382V591H292V675Z" />
<glyph unicode="&#xe5;" glyph-name="aring" horiz-adv-x="488" d="M106 -10T65 30T23 135Q23 200 68 239T179 294T311 312Q310 369 287 390T211 412Q179 412 148 403T78 370L66 455Q103 478 147 490T239 503Q331 503 373 453T415 283V168Q415 129 418 110T432
83T466 75H478L466 -10H443Q391 -10 365 6T322 56Q295 25 256 8T171 -10Q106 -10 65 30ZM232 72T261 86T311 125V241Q131 235 131 140Q131 72 203 72Q232 72 261 86ZM191 569T163 597T135 668Q135 708 163 737T239 767Q287 767 315 738T343 668Q343 626 316 598T239
569Q191 569 163 597ZM260 616T275 630T290 668Q290 690 275 704T239 719Q218 719 203 705T188 668Q188 645 203 631T239 616Q260 616 275 630Z" />
<glyph unicode="&#xe6;" glyph-name="ae" horiz-adv-x="781" d="M753 266T747 236H423Q429 155 473 117T582 79Q644 79 721 113L731 28Q660 -10 573 -10Q505 -10 453 14T367 81Q334 40 286 15T185 -10Q112 -10 68 28T23 131Q23 224 108 264T312 307Q310 360 287
386T211 412Q179 412 148 403T78 370L66 455Q103 478 147 490T239 503Q293 503 328 487T385 434Q416 467 458 485T551 503Q615 503 660 476T729 400T753 292Q753 266 747 236ZM646 307Q646 354 621 384T547 414Q499 414 468 387T426 307H646ZM284 72T337 133Q316
179 313 236Q219 235 175 211T131 140Q131 106 153 89T212 72Q284 72 337 133Z" />
<glyph unicode="&#xe7;" glyph-name="ccedilla" horiz-adv-x="454" d="M328 -54T352 -76T376 -138Q376 -182 345 -207T267 -232Q221 -232 187 -213L204 -159Q235 -176 268 -176Q290 -176 302 -167T315 -140Q315 -103 265 -103Q242 -103 218 -110L243 -7Q141 6
86 75T31 245Q31 319 60 377T148 470T293 504Q370 504 427 474L415 386Q359 414 297 414Q221 414 180 370T138 247Q138 171 179 125T296 79Q359 79 416 110L428 24Q404 10 368 1T294 -10L280 -54H286Q328 -54 352 -76Z" />
<glyph unicode="&#xe8;" glyph-name="egrave" horiz-adv-x="513" d="M212 -10T152 25T61 119T30 251Q30 320 58 377T141 469T271 503Q369 503 427 446T485 292Q485 266 479 236H137Q147 153 192 116T308 79Q387 79 453 113L463 28Q383 -10 297 -10Q212 -10 152
25ZM378 307Q378 354 351 384T270 414Q169 414 143 307H378ZM183 648V753L374 642V573L183 648Z" />
<glyph unicode="&#xe9;" glyph-name="eacute" horiz-adv-x="513" d="M212 -10T152 25T61 119T30 251Q30 320 58 377T141 469T271 503Q369 503 427 446T485 292Q485 266 479 236H137Q147 153 192 116T308 79Q387 79 453 113L463 28Q383 -10 297 -10Q212 -10 152
25ZM378 307Q378 354 351 384T270 414Q169 414 143 307H378ZM184 642L375 753V648L184 573V642Z" />
<glyph unicode="&#xea;" glyph-name="ecircumflex" horiz-adv-x="513" d="M212 -10T152 25T61 119T30 251Q30 320 58 377T141 469T271 503Q369 503 427 446T485 292Q485 266 479 236H137Q147 153 192 116T308 79Q387 79 453 113L463 28Q383 -10 297 -10Q212 -10
152 25ZM378 307Q378 354 351 384T270 414Q169 414 143 307H378ZM150 628L279 739L408 628V560L279 641L150 560V628Z" />
<glyph unicode="&#xeb;" glyph-name="edieresis" horiz-adv-x="513" d="M212 -10T152 25T61 119T30 251Q30 320 58 377T141 469T271 503Q369 503 427 446T485 292Q485 266 479 236H137Q147 153 192 116T308 79Q387 79 453 113L463 28Q383 -10 297 -10Q212 -10
152 25ZM378 307Q378 354 351 384T270 414Q169 414 143 307H378ZM136 675H226V591H136V675ZM332 675H422V591H332V675Z" />
<glyph unicode="&#xec;" glyph-name="igrave" horiz-adv-x="224" d="M60 494H164V0H60V494ZM16 648V753L207 642V573L16 648Z" />
<glyph unicode="&#xed;" glyph-name="iacute" horiz-adv-x="224" d="M60 494H164V0H60V494ZM17 642L208 753V648L17 573V642Z" />
<glyph unicode="&#xee;" glyph-name="icircumflex" horiz-adv-x="224" d="M60 494H164V0H60V494ZM-17 628L112 739L241 628V560L112 641L-17 560V628Z" />
<glyph unicode="&#xef;" glyph-name="idieresis" horiz-adv-x="224" d="M60 494H164V0H60V494ZM-31 675H59V591H-31V675ZM165 675H255V591H165V675Z" />
<glyph unicode="&#xf0;" glyph-name="eth" horiz-adv-x="510" d="M412 535T445 446T479 257Q479 168 447 108T362 18T246 -12Q181 -12 130 17T51 95T23 205Q23 263 49 313T124 395T237 426Q316 426 362 378Q348 488 282 560L168 495L133 553L227 606Q184 633 133
646L151 701Q228 688 294 644L392 700L426 642L349 598Q412 535 445 446ZM304 78T337 115T370 208Q370 264 337 300T248 337Q192 337 159 300T126 208Q126 152 159 115T249 78Q304 78 337 115Z" />
<glyph unicode="&#xf1;" glyph-name="ntilde" horiz-adv-x="556" d="M405 503T453 443T501 274V0H397V270Q397 345 370 379T281 414Q243 414 213 400T164 359V0H60V494H149L155 449Q222 503 306 503Q405 503 453 443ZM359 575T342 581T302 600Q298 602 285 608T260
618T239 621Q223 621 214 611T205 583H126Q128 639 150 668T212 698Q229 698 246 692T286 674Q307 664 321 659T349 653Q365 653 374 663T383 690H462Q460 634 438 605T376 575Q359 575 342 581Z" />
<glyph unicode="&#xf2;" glyph-name="ograve" horiz-adv-x="558" d="M202 -10T146 24T60 117T30 247Q30 318 59 376T145 469T279 504Q355 504 411 470T498 377T528 247Q528 176 498 118T412 25T279 -10Q202 -10 146 24ZM347 79T384 124T421 247Q421 325 384 370T279
415Q211 415 174 370T137 247Q137 169 174 124T279 79Q347 79 384 124ZM183 648V753L374 642V573L183 648Z" />
<glyph unicode="&#xf3;" glyph-name="oacute" horiz-adv-x="558" d="M202 -10T146 24T60 117T30 247Q30 318 59 376T145 469T279 504Q355 504 411 470T498 377T528 247Q528 176 498 118T412 25T279 -10Q202 -10 146 24ZM347 79T384 124T421 247Q421 325 384 370T279
415Q211 415 174 370T137 247Q137 169 174 124T279 79Q347 79 384 124ZM184 642L375 753V648L184 573V642Z" />
<glyph unicode="&#xf4;" glyph-name="ocircumflex" horiz-adv-x="558" d="M202 -10T146 24T60 117T30 247Q30 318 59 376T145 469T279 504Q355 504 411 470T498 377T528 247Q528 176 498 118T412 25T279 -10Q202 -10 146 24ZM347 79T384 124T421 247Q421 325 384
370T279 415Q211 415 174 370T137 247Q137 169 174 124T279 79Q347 79 384 124ZM150 628L279 739L408 628V560L279 641L150 560V628Z" />
<glyph unicode="&#xf5;" glyph-name="otilde" horiz-adv-x="558" d="M202 -10T146 24T60 117T30 247Q30 318 59 376T145 469T279 504Q355 504 411 470T498 377T528 247Q528 176 498 118T412 25T279 -10Q202 -10 146 24ZM347 79T384 124T421 247Q421 325 384 370T279
415Q211 415 174 370T137 247Q137 169 174 124T279 79Q347 79 384 124ZM344 579T327 585T287 604Q283 606 270 612T245 622T224 625Q208 625 199 615T190 587H111Q113 643 135 672T197 702Q214 702 231 696T271 678Q292 668 306 663T334 657Q350 657 359 667T368
694H447Q445 638 423 609T361 579Q344 579 327 585Z" />
<glyph unicode="&#xf6;" glyph-name="odieresis" horiz-adv-x="558" d="M202 -10T146 24T60 117T30 247Q30 318 59 376T145 469T279 504Q355 504 411 470T498 377T528 247Q528 176 498 118T412 25T279 -10Q202 -10 146 24ZM347 79T384 124T421 247Q421 325 384
370T279 415Q211 415 174 370T137 247Q137 169 174 124T279 79Q347 79 384 124ZM136 675H226V591H136V675ZM332 675H422V591H332V675Z" />
<glyph unicode="&#xf7;" glyph-name="divide" horiz-adv-x="485" d="M188 506H298V395H188V506ZM43 321H442V237H43V321ZM188 164H298V53H188V164Z" />
<glyph unicode="&#xf8;" glyph-name="oslash" horiz-adv-x="558" d="M487 408T507 357T528 247Q528 176 498 118T412 25T279 -10Q222 -10 172 11L139 -40H55L112 49Q72 84 51 135T30 247Q30 318 59 376T145 469T279 504Q339 504 389 482L420 530H503L448 443Q487
408 507 357ZM137 177T167 134L339 403Q313 415 279 415Q211 415 174 370T137 247Q137 177 167 134ZM347 79T384 124T421 247Q421 313 393 358L222 89Q249 79 279 79Q347 79 384 124Z" />
<glyph unicode="&#xf9;" glyph-name="ugrave" horiz-adv-x="536" d="M476 494V0H381L375 43Q327 -10 249 -10Q151 -10 103 48T55 216V494H159V230Q159 154 184 117T267 80Q300 80 327 92T372 129V494H476ZM172 648V753L363 642V573L172 648Z" />
<glyph unicode="&#xfa;" glyph-name="uacute" horiz-adv-x="536" d="M476 494V0H381L375 43Q327 -10 249 -10Q151 -10 103 48T55 216V494H159V230Q159 154 184 117T267 80Q300 80 327 92T372 129V494H476ZM173 642L364 753V648L173 573V642Z" />
<glyph unicode="&#xfb;" glyph-name="ucircumflex" horiz-adv-x="536" d="M476 494V0H381L375 43Q327 -10 249 -10Q151 -10 103 48T55 216V494H159V230Q159 154 184 117T267 80Q300 80 327 92T372 129V494H476ZM139 628L268 739L397 628V560L268 641L139 560V628Z" />
<glyph unicode="&#xfc;" glyph-name="udieresis" horiz-adv-x="536" d="M476 494V0H381L375 43Q327 -10 249 -10Q151 -10 103 48T55 216V494H159V230Q159 154 184 117T267 80Q300 80 327 92T372 129V494H476ZM125 675H215V591H125V675ZM321 675H411V591H321V675Z" />
<glyph unicode="&#xfd;" glyph-name="yacute" horiz-adv-x="519" d="M210 27L4 494H121L263 148L398 494H514L208 -242H98L210 27ZM164 642L355 753V648L164 573V642Z" />
<glyph unicode="&#xfe;" glyph-name="thorn" horiz-adv-x="581" d="M391 503T443 469T523 376T551 247Q551 176 524 118T445 25T319 -10Q268 -10 231 4T164 48V-241H59V750H164V446Q197 475 234 489T319 503Q391 503 443 469ZM370 75T407 122T444 247Q444 323
408 368T303 414Q233 414 195 370T157 247Q157 168 195 122T303 75Q370 75 407 122Z" />
<glyph unicode="&#xff;" glyph-name="ydieresis" horiz-adv-x="519" d="M210 27L4 494H121L263 148L398 494H514L208 -242H98L210 27ZM116 675H206V591H116V675ZM312 675H402V591H312V675Z" />
<glyph unicode="&#x2013;" glyph-name="endash" horiz-adv-x="548" d="M0 356H548V266H0V356Z" />
<glyph unicode="&#x2014;" glyph-name="emdash" horiz-adv-x="728" d="M0 356H728V266H0V356Z" />
<glyph unicode="&#x2018;" glyph-name="quoteleft" horiz-adv-x="211" d="M170 700L131 587H173V468H55V576L112 700H170Z" />
<glyph unicode="&#x2019;" glyph-name="quoteright" horiz-adv-x="205" d="M41 468L80 581H38V700H156V592L99 468H41Z" />
<glyph unicode="&#x201a;" glyph-name="quotesinglbase" horiz-adv-x="205" d="M297 -113L336 0H294V119H412V11L355 -113H297Z" />
<glyph unicode="&#x201c;" glyph-name="quotedblleft" horiz-adv-x="384" d="M170 706L131 593H173V474H55V582L112 706H170ZM343 706L304 593H346V474H228V582L285 706H343Z" />
<glyph unicode="&#x201d;" glyph-name="quotedblright" horiz-adv-x="377" d="M41 468L80 581H38V700H156V592L99 468H41ZM214 468L253 581H211V700H329V592L272 468H214Z" />
<glyph unicode="&#x201e;" glyph-name="quotedblbase" horiz-adv-x="377" d="M297 -113L336 0H294V119H412V11L355 -113H297ZM214 -113L253 0H211V119H329V11L272 -113H214Z" />
<glyph unicode="&#x2022;" glyph-name="bullet" horiz-adv-x="303" d="M106 169T74 201T42 278Q42 323 74 355T151 387Q196 387 228 355T260 278Q260 233 228 201T151 169Q106 169 74 201Z" />
<glyph unicode="&#x2039;" glyph-name="guilsinglleft" horiz-adv-x="333" d="M13 284L169 490H294L138 284L294 78H169L13 284Z" />
<glyph unicode="&#x203a;" glyph-name="guilsinglright" horiz-adv-x="333" d="M195 284L39 490H164L320 284L164 78H39L195 284Z" />
</font>
</defs>
</svg>
