<?xml version="1.0" standalone="no"?>
<!DOCTYPE svg PUBLIC "-//W3C//DTD SVG 1.1//EN" "http://www.w3.org/Graphics/SVG/1.1/DTD/svg11.dtd">
<svg xmlns="http://www.w3.org/2000/svg">
<defs >
<font id="Cabin" horiz-adv-x="505" ><font-face
    font-family="Cabin Medium"
    units-per-em="1000"
    panose-1="0 0 6 0 0 0 0 0 0 0"
    ascent="965"
    descent="-250"
    alphabetic="0" />
<glyph unicode=" " glyph-name="space" horiz-adv-x="207" />
<glyph unicode="!" glyph-name="exclam" horiz-adv-x="196" d="M41 211L111 700H235L131 211L127 184H37L41 211ZM12 116H127L107 0H-9L12 116Z" />
<glyph unicode="&quot;" glyph-name="quotedbl" horiz-adv-x="305" d="M64 700H172L116 493H45L64 700ZM221 700H329L273 493H202L221 700Z" />
<glyph unicode="#" glyph-name="numbersign" horiz-adv-x="659" d="M129 214H19L76 310H181L237 419H123L168 509H285L386 700H469L367 509H479L580 700H662L561 509H664L619 419H513L456 310H573L514 214H405L287 -11H204L322 214H212L92 -11H11L129 214ZM374
310L431 419H320L262 310H374Z" />
<glyph unicode="$" glyph-name="dollar" horiz-adv-x="555" d="M263 616T219 590T175 512Q175 475 202 455T290 411Q355 387 391 368T455 312T482 216Q482 131 427 66T250 -11L234 -144H150L180 -14Q120 -12 71 1T-10 33L24 156Q59 125 106 105T211 84Q278 84
320 111T362 193Q362 226 346 248T303 284T228 317Q173 339 140 357T84 408T61 489Q61 543 90 595T180 680T328 714H329L344 844H429L397 708Q474 696 528 664L498 553Q451 585 410 600T320 616Q263 616 219 590Z" />
<glyph unicode="%" glyph-name="percent" horiz-adv-x="867" d="M357 314T322 354T286 464Q286 529 312 586T385 679T493 714Q557 714 593 675T631 567Q631 501 605 443T531 350T423 314Q357 314 322 354ZM470 391T494 416T530 480T542 559Q542 597 526 617T480
637Q446 637 422 612T387 548T375 470Q375 391 436 391Q470 391 494 416ZM646 700H735L205 0H115L646 700ZM543 -14T508 26T472 136Q472 201 498 258T571 351T679 386Q743 386 779 347T817 239Q817 173 791 115T717 22T609 -14Q543 -14 508 26ZM656 63T680 88T716
152T728 231Q728 269 712 289T666 309Q632 309 608 284T573 220T561 142Q561 63 622 63Q656 63 680 88Z" />
<glyph unicode="&amp;" glyph-name="ampersand" horiz-adv-x="575" d="M103 -23T57 20T11 134Q11 201 50 255T164 366Q122 450 122 513Q122 569 153 612T233 679T337 703Q397 703 427 674T458 593Q458 524 408 468T280 361L394 178Q408 204 421 254T444 351H540Q511
199 447 107L517 0H404L378 42Q337 8 294 -7T198 -23Q103 -23 57 20ZM268 433T267 432Q320 474 343 502T366 569Q366 624 315 624Q276 624 248 595T220 515Q220 469 247 415Q268 433 267 432ZM287 54T338 105L202 309Q164 277 141 236T117 149Q117 106 141 80T219
54Q287 54 338 105Z" />
<glyph unicode="&apos;" glyph-name="quotesingle" horiz-adv-x="149" d="M64 700H172L116 493H45L64 700Z" />
<glyph unicode="(" glyph-name="parenleft" horiz-adv-x="282" d="M91 -71T73 0T54 158Q54 321 110 470T273 750H368Q265 616 210 462T154 149Q154 1 212 -136H124Q91 -71 73 0Z" />
<glyph unicode=")" glyph-name="parenright" horiz-adv-x="282" d="M191 685T209 614T228 456Q228 293 172 144T9 -136H-86Q17 -2 72 152T128 465Q128 613 70 750H158Q191 685 209 614Z" />
<glyph unicode="*" glyph-name="asterisk" horiz-adv-x="412" d="M193 561L72 639L113 691L223 605L243 752H306L274 606L413 692L436 638L287 558L409 478L369 427L258 513L237 365H174L207 513L67 427L43 481L193 561Z" />
<glyph unicode="+" glyph-name="plus" horiz-adv-x="426" d="M139 239H9L23 321H153L177 454H264L241 321H371L356 239H226L203 105H115L139 239Z" />
<glyph unicode="," glyph-name="comma" horiz-adv-x="191" d="M-29 -111L29 0H-11L9 116H125L106 11L28 -111H-29Z" />
<glyph unicode="-" glyph-name="hyphen" horiz-adv-x="400" d="M63 355H348L332 267H47L63 355Z" />
<glyph unicode="." glyph-name="period" horiz-adv-x="191" d="M9 116H124L104 0H-11L9 116Z" />
<glyph unicode="/" glyph-name="slash" horiz-adv-x="378" d="M355 700H464L62 -85H-47L355 700Z" />
<glyph unicode="0" glyph-name="zero" horiz-adv-x="680" d="M157 -14T96 59T35 259Q35 376 80 481T208 650T394 714Q502 714 563 643T625 449Q625 332 580 225T452 52T266 -14Q157 -14 96 59ZM355 82T408 135T488 271T515 444Q515 530 479 574T377 619Q303 619
251 567T172 432T145 262Q145 174 180 128T282 82Q355 82 408 135Z" />
<glyph unicode="1" glyph-name="one" horiz-adv-x="332" d="M164 548Q105 509 55 496L57 591Q98 602 145 633T218 700H294L170 0H66L164 548Z" />
<glyph unicode="2" glyph-name="two" horiz-adv-x="499" d="M202 288Q280 386 309 435T339 531Q339 570 318 592T258 614Q211 614 167 591T73 526L80 636Q125 672 177 693T286 714Q365 714 407 671T449 555Q449 503 430 456T377 361T280 237L166 98H401L384 1H-30L202
288Z" />
<glyph unicode="3" glyph-name="three" horiz-adv-x="517" d="M375 347T401 306T428 207Q428 144 396 94T306 15T179 -14Q70 -14 -30 47L13 142Q56 112 97 96T184 80Q243 80 279 113T316 205Q316 257 284 285T186 313H139L156 410H202Q269 410 310 443T351 534Q351
576 327 598T258 620Q192 620 102 565L103 667Q189 714 288 714Q369 714 416 670T464 555Q464 491 427 441T326 367Q375 347 401 306Z" />
<glyph unicode="4" glyph-name="four" horiz-adv-x="570" d="M516 263L501 174H421L390 0H289L320 174H-22L439 700H514L436 263H516ZM335 263L378 503L169 263H335Z" />
<glyph unicode="5" glyph-name="five" horiz-adv-x="510" d="M232 599L183 438Q207 441 232 441Q328 441 382 387T437 241Q437 167 402 109T307 18T171 -14Q61 -14 -24 44L25 133Q63 108 98 95T176 82Q245 82 286 122T328 228Q328 287 292 319T190 352Q135 352
61 340L166 700H486L462 599H232Z" />
<glyph unicode="6" glyph-name="six" horiz-adv-x="558" d="M396 420T445 370T494 239Q494 169 460 111T366 20T230 -14Q136 -14 80 42T23 192Q23 296 79 398T228 582T427 714L487 640Q389 597 301 527T165 372Q227 420 315 420Q396 420 445 370ZM280 76T314 97T368
153T388 228Q388 273 361 301T286 330Q243 330 208 309T152 253T131 177Q132 132 161 104T238 76Q280 76 314 97Z" />
<glyph unicode="7" glyph-name="seven" horiz-adv-x="496" d="M536 700L130 0H19L364 600H80L98 700H536Z" />
<glyph unicode="8" glyph-name="eight" horiz-adv-x="587" d="M463 359T482 323T501 240Q501 167 465 109T367 19T231 -14Q137 -14 80 34T23 162Q23 233 61 292T164 383Q115 425 113 494Q113 556 144 606T230 685T350 714Q436 714 478 671T521 559Q521 503 496
457T427 382Q463 359 482 323ZM283 623T249 590T214 507Q215 470 238 448T302 425Q354 425 387 459T420 543Q420 581 399 602T336 623Q283 623 249 590ZM309 80T352 121T396 228Q395 276 367 304T285 332Q240 332 205 312T149 255T129 176Q130 132 159 106T240
80Q309 80 352 121Z" />
<glyph unicode="9" glyph-name="nine" horiz-adv-x="567" d="M413 714T469 658T526 508Q526 404 470 302T321 118T122 -14L62 60Q160 103 248 173T384 328Q322 280 234 280Q153 280 104 330T55 461Q55 531 89 589T183 680T319 714Q413 714 469 658ZM306 370T341
391T397 447T418 523Q417 568 388 596T311 624Q269 624 235 603T181 547T161 472Q161 427 188 399T263 370Q306 370 341 391Z" />
<glyph unicode=":" glyph-name="colon" horiz-adv-x="191" d="M73 493H188L168 377H53L73 493ZM9 116H124L104 0H-11L9 116Z" />
<glyph unicode=";" glyph-name="semicolon" horiz-adv-x="191" d="M-29 -111L29 0H-11L9 116H125L106 11L28 -111H-29ZM74 493H189L169 377H54L74 493Z" />
<glyph unicode="&lt;" glyph-name="less" horiz-adv-x="424" d="M27 326L404 487L387 393L104 277L347 162L331 72L11 234L27 326Z" />
<glyph unicode="=" glyph-name="equal" horiz-adv-x="444" d="M41 397H398L383 316H27L41 397ZM13 238H370L355 157H-1L13 238Z" />
<glyph unicode="&gt;" glyph-name="greater" horiz-adv-x="402" d="M347 234L-30 73L-13 167L270 283L27 398L43 488L363 326L347 234Z" />
<glyph unicode="?" glyph-name="question" horiz-adv-x="454" d="M109 204Q119 260 146 297T223 383Q261 420 279 440T311 485T324 541Q324 577 299 596T235 616Q169 616 95 578L100 671Q140 692 183 703T278 714Q358 714 400 675T444 571Q444 528 428 493T388
429T321 361Q274 316 249 284T217 210L212 184H106L109 204ZM89 116H205L184 0H69L89 116Z" />
<glyph unicode="@" glyph-name="at" horiz-adv-x="677" d="M123 -87T74 -34T24 115Q24 232 85 333T243 493T444 553Q535 553 585 499T635 352Q635 294 616 234T557 134T462 94Q445 94 437 100T429 128Q429 154 439 183T475 267Q508 339 523 379Q507 402 482 417T421
432Q359 432 292 385T179 266T134 125Q134 88 150 64T201 40Q244 40 296 71T387 156Q386 151 381 136T376 102Q376 77 386 60T418 42Q443 42 482 61T548 106Q490 19 399 -34T213 -87Q123 -87 74 -34ZM227 106T220 118T212 152Q212 207 247 257T331 339T418 371Q452
371 456 349Q438 297 399 240T317 144T243 106Q227 106 220 118Z" />
<glyph unicode="A" glyph-name="A" horiz-adv-x="581" d="M314 700H418L525 0H414L388 182H161L72 0H-39L314 700ZM370 281L338 544L214 281H370Z" />
<glyph unicode="B" glyph-name="B" horiz-adv-x="582" d="M150 700H325Q425 700 478 665T532 547Q532 488 506 444T434 375Q532 340 532 231Q532 120 456 60T255 0H27L150 700ZM303 412Q357 412 390 442T423 526Q423 568 401 587T334 607H240L206 412H303ZM254
94Q326 94 372 127T418 224Q418 272 391 296T309 321H190L150 94H254Z" />
<glyph unicode="C" glyph-name="C" horiz-adv-x="574" d="M229 -14T170 21T78 124T45 285Q45 406 98 504T240 658T436 714Q485 714 532 703T610 673L581 574Q573 577 543 589T482 609T422 616Q342 616 283 571T193 452T162 292Q162 196 203 140T331 84Q370 84
406 94T502 126L496 26Q457 8 407 -3T310 -14Q229 -14 170 21Z" />
<glyph unicode="D" glyph-name="D" horiz-adv-x="682" d="M150 700H390Q513 700 584 625T655 410Q655 291 603 198T463 52T267 0H27L150 700ZM285 98Q364 98 421 139T508 250T538 403Q538 499 497 550T373 602H239L151 98H285Z" />
<glyph unicode="E" glyph-name="E" horiz-adv-x="528" d="M150 700H556L538 601H241L208 415H441L423 316H191L152 99H458L441 0H27L150 700Z" />
<glyph unicode="F" glyph-name="F" horiz-adv-x="496" d="M150 700H546L529 601H239L206 415H430L412 316H189L133 0H27L150 700Z" />
<glyph unicode="G" glyph-name="G" horiz-adv-x="629" d="M231 -14T171 22T78 125T45 286Q45 406 97 504T240 658T437 714Q486 714 539 703T624 674L596 578Q558 594 512 605T425 616Q341 616 282 571T192 452T162 295Q162 196 207 140T340 84Q393 84 439 101L467
258H384L400 351H589L534 39Q493 17 430 2T311 -14Q231 -14 171 22Z" />
<glyph unicode="H" glyph-name="H" horiz-adv-x="698" d="M150 700H256L206 416H534L584 700H690L566 0H460L516 315H189L133 0H27L150 700Z" />
<glyph unicode="I" glyph-name="I" horiz-adv-x="264" d="M150 700H256L133 0H27L150 700Z" />
<glyph unicode="J" glyph-name="J" horiz-adv-x="265" d="M-70 -103H-54Q-18 -103 0 -80T27 -1L151 700H257L128 -29Q116 -99 71 -135T-47 -172H-74L-70 -103Z" />
<glyph unicode="K" glyph-name="K" horiz-adv-x="567" d="M150 700H256L133 0H27L150 700ZM207 371L493 700H621L321 371L508 0H389L207 371Z" />
<glyph unicode="L" glyph-name="L" horiz-adv-x="475" d="M150 700H256L151 99H428L410 0H27L150 700Z" />
<glyph unicode="M" glyph-name="M" horiz-adv-x="771" d="M207 700H301L397 362L612 700H706L671 0H560L592 499L362 160L251 499L106 0H-5L207 700Z" />
<glyph unicode="N" glyph-name="N" horiz-adv-x="665" d="M150 700H259L462 200L550 700H657L533 0H445L227 529L133 0H27L150 700Z" />
<glyph unicode="O" glyph-name="O" horiz-adv-x="721" d="M228 -14T169 21T77 124T45 284Q45 405 97 503T238 658T431 714Q512 714 571 679T663 576T695 416Q695 295 643 197T502 42T309 -14Q228 -14 169 21ZM401 84T458 129T547 249T579 409Q579 504 538 560T413
616Q338 616 281 571T193 451T162 291Q162 196 202 140T326 84Q401 84 458 129Z" />
<glyph unicode="P" glyph-name="P" horiz-adv-x="554" d="M150 700H358Q566 700 566 510Q566 419 530 358T435 269T302 240H177L135 0H27L150 700ZM308 337Q377 337 416 380T455 498Q455 552 431 580T352 608H243L194 337H308Z" />
<glyph unicode="Q" glyph-name="Q" horiz-adv-x="720" d="M227 -14T168 21T77 124T45 284Q45 404 97 502T238 657T430 714Q512 714 572 678T663 576T695 419Q695 339 668 266T585 117L633 68L561 -1L508 54Q415 -14 307 -14Q227 -14 168 21ZM393 84T441 119L369
198L441 269L514 187Q547 241 564 289T582 405Q582 504 540 560T414 616Q338 616 281 571T193 450T162 290Q162 195 202 140T326 84Q393 84 441 119Z" />
<glyph unicode="R" glyph-name="R" horiz-adv-x="581" d="M150 700H357Q460 700 513 656T567 522Q567 439 524 382T414 297L509 0H398L308 269H182L135 0H27L150 700ZM313 370Q375 370 414 407T454 514Q454 563 430 588T350 613H243L200 370H313Z" />
<glyph unicode="S" glyph-name="S" horiz-adv-x="547" d="M147 -14T93 -1T6 33L40 156Q75 125 122 105T227 84Q294 84 336 111T378 193Q378 226 362 248T319 284T244 317Q189 339 156 357T100 408T77 489Q77 543 106 595T196 680T344 714Q404 714 456 700T544
664L514 553Q467 585 426 600T336 616Q279 616 235 590T191 512Q191 475 218 455T306 411Q371 387 407 368T471 312T498 216Q498 157 471 105T379 20T212 -14Q147 -14 93 -1Z" />
<glyph unicode="T" glyph-name="T" horiz-adv-x="537" d="M269 601H84L102 700H576L559 601H375L269 0H163L269 601Z" />
<glyph unicode="U" glyph-name="U" horiz-adv-x="677" d="M175 -14T120 43T64 207Q64 249 73 298L144 700H250L187 343Q175 276 175 234Q176 163 205 124T302 84Q395 84 441 154T508 343L571 700H677L606 298Q580 151 499 69T285 -14Q175 -14 120 43Z" />
<glyph unicode="V" glyph-name="V" horiz-adv-x="609" d="M73 700H184L272 126L558 700H669L311 0H187L73 700Z" />
<glyph unicode="W" glyph-name="W" horiz-adv-x="904" d="M91 700H202L235 146L478 691H572L623 151L852 700H962L650 0H549L497 538L254 0H148L91 700Z" />
<glyph unicode="X" glyph-name="X" horiz-adv-x="580" d="M238 358L88 700H210L317 431L518 700H636L359 356L521 0H402L283 277L76 0H-42L238 358Z" />
<glyph unicode="Y" glyph-name="Y" horiz-adv-x="565" d="M230 319L76 700H188L302 413L513 700H625L338 319L281 0H174L230 319Z" />
<glyph unicode="Z" glyph-name="Z" horiz-adv-x="512" d="M381 601H107L125 700H573L151 99H426L408 0H-40L381 601Z" />
<glyph unicode="[" glyph-name="bracketleft" horiz-adv-x="313" d="M151 750H387L373 668H229L102 -54H245L231 -135H-5L151 750Z" />
<glyph unicode="\" glyph-name="backslash" horiz-adv-x="322" d="M63 700H166L278 -85H176L63 700Z" />
<glyph unicode="]" glyph-name="bracketright" horiz-adv-x="318" d="M-54 -54H84L211 668H74L88 750H319L163 -135H-68L-54 -54Z" />
<glyph unicode="^" glyph-name="asciicircum" horiz-adv-x="439" d="M41 569L254 759L423 544L403 433L236 631L21 457L41 569Z" />
<glyph unicode="_" glyph-name="underscore" horiz-adv-x="513" d="M-54 -36H461L445 -125H-70L-54 -36Z" />
<glyph unicode="`" glyph-name="grave" horiz-adv-x="380" d="M110 645L128 749L291 641L279 574L110 645Z" />
<glyph unicode="a" glyph-name="a" horiz-adv-x="555" d="M113 -10T67 45T20 190Q20 269 54 341T149 458T286 503Q365 503 400 447L418 493H507L448 148Q444 127 444 109Q444 87 454 80T492 72L466 -10Q425 -10 403 -6T365 12T341 57Q279 -10 190 -10Q113 -10
67 45ZM267 77T301 104T355 178T374 282Q374 348 348 381T276 415Q234 415 200 387T146 311T126 208Q126 149 150 113T224 77Q267 77 301 104Z" />
<glyph unicode="b" glyph-name="b" horiz-adv-x="533" d="M162 -10T118 61L101 0H9L141 750H243L189 444Q244 503 325 503Q407 503 452 444T497 294Q497 205 465 136T378 29T256 -10Q162 -10 118 61ZM289 77T321 104T372 179T391 284Q391 344 368 379T296 415Q254
415 219 388T164 314T144 206Q144 141 171 109T247 77Q289 77 321 104Z" />
<glyph unicode="c" glyph-name="c" horiz-adv-x="424" d="M115 -10T68 48T21 200Q21 280 54 349T150 461T303 503Q342 503 374 495T429 471L402 382Q353 415 302 415Q247 415 207 388T147 315T126 213Q126 148 155 113T244 77Q295 77 355 110L350 24Q293 -10 212
-10Q115 -10 68 48Z" />
<glyph unicode="d" glyph-name="d" horiz-adv-x="534" d="M553 750L421 0H327L333 59Q269 -10 188 -10Q137 -10 99 17T41 90T20 195Q20 273 52 344T142 459T272 503Q355 503 396 437L451 750H553ZM264 77T298 103T353 176T374 282Q374 347 348 381T276 415Q234
415 200 387T146 310T126 206Q126 148 150 113T223 77Q264 77 298 103Z" />
<glyph unicode="e" glyph-name="e" horiz-adv-x="468" d="M126 -10T73 49T20 203Q20 281 54 350T151 461T292 503Q365 503 404 467T444 371Q444 299 385 253T212 206Q165 206 128 214Q131 77 251 77Q286 77 323 85T393 110L386 28Q319 -10 227 -10Q126 -10 73
49ZM283 274T318 300T354 362Q354 390 334 402T284 415Q235 415 197 380T138 282Q166 274 200 274Q283 274 318 300Z" />
<glyph unicode="f" glyph-name="f" horiz-adv-x="314" d="M107 413H37L61 493H121L143 616Q154 678 188 714T293 750Q322 750 345 745T373 739L347 654Q320 662 301 662Q279 662 268 654T250 624T234 556L223 493H333L318 413H209L136 0H34L107 413Z" />
<glyph unicode="g" glyph-name="g" horiz-adv-x="468" d="M82 -250T39 -231T-23 -183T-43 -122Q-43 -86 -19 -50T55 9Q39 20 31 35T23 65Q23 85 39 107T85 145Q60 171 48 205T36 275Q36 334 63 386T142 471T259 503Q323 503 363 469Q382 480 410 487T470 495H491L471
429H437Q423 429 400 424Q416 389 416 340Q416 283 389 231T311 146T195 113Q167 113 140 121Q121 109 121 93Q121 77 145 69T237 47Q306 35 352 9T399 -78Q399 -123 369 -162T281 -226T149 -250Q82 -250 39 -231ZM259 190T291 233T323 334Q323 378 303 401T245
424Q193 424 162 383T130 282Q130 238 150 214T207 190Q259 190 291 233ZM200 -174T233 -163T284 -133T302 -93Q302 -63 270 -50T178 -26Q144 -20 129 -16Q95 -28 71 -52T47 -106Q47 -136 76 -155T159 -174Q200 -174 233 -163Z" />
<glyph unicode="h" glyph-name="h" horiz-adv-x="517" d="M141 750H244L189 443Q221 475 254 489T328 503Q394 503 429 461T464 352Q464 315 453 253L410 0H308L350 245Q360 307 360 336Q360 373 341 394T286 415Q253 415 227 401T174 358L111 0H9L141 750Z" />
<glyph unicode="i" glyph-name="i" horiz-adv-x="223" d="M132 700H234L216 592H114L132 700ZM96 493H198L111 0H9L96 493Z" />
<glyph unicode="j" glyph-name="j" horiz-adv-x="224" d="M133 700H235L216 592H114L133 700ZM-79 -162Q-52 -160 -39 -153T-18 -128T-3 -69L96 493H198L92 -108Q81 -170 45 -202T-47 -239L-83 -242L-79 -162Z" />
<glyph unicode="k" glyph-name="k" horiz-adv-x="445" d="M141 750H243L160 278L352 493H470L254 263L384 0H267L153 240L111 0H9L141 750Z" />
<glyph unicode="l" glyph-name="l" horiz-adv-x="244" d="M72 -10T48 15T24 80Q24 94 28 123T35 162L139 750H241L136 152Q131 120 131 109Q131 86 142 79T184 72L158 -10H122Q72 -10 48 15Z" />
<glyph unicode="m" glyph-name="m" horiz-adv-x="813" d="M96 493H178V446Q209 476 242 489T312 503Q412 503 442 412Q466 453 510 478T615 503Q688 503 725 465T762 354Q762 335 750 258T706 0H604Q635 177 647 249T659 335Q659 378 641 396T584 415Q525 415
497 379T460 292L408 0H307Q337 171 349 245T361 334Q361 379 341 397T284 415Q215 415 175 359L111 0H9L96 493Z" />
<glyph unicode="n" glyph-name="n" horiz-adv-x="522" d="M96 493H183V449Q216 478 249 490T322 503Q398 503 434 461T470 342Q470 323 461 263T415 0H313Q343 173 354 243T366 328Q366 373 347 394T286 415Q216 415 174 358L111 0H9L96 493Z" />
<glyph unicode="o" glyph-name="o" horiz-adv-x="526" d="M118 -10T69 48T20 200Q20 279 55 349T154 461T296 503Q390 503 439 444T489 292Q489 213 453 144T354 32T212 -10Q118 -10 69 48ZM273 77T309 105T364 180T384 285Q384 349 358 382T282 415Q236 415 200
388T144 313T124 208Q124 144 149 111T226 77Q273 77 309 105Z" />
<glyph unicode="p" glyph-name="p" horiz-adv-x="535" d="M96 493H181L180 432Q214 467 248 485T327 503Q408 503 452 445T497 294Q497 212 466 143T378 32T249 -10Q161 -10 121 60L68 -242H-34L96 493ZM285 77T319 105T372 182T391 286Q391 345 368 380T298 415Q256
415 221 389T165 315T144 205Q144 140 170 109T243 77Q285 77 319 105Z" />
<glyph unicode="q" glyph-name="q" horiz-adv-x="534" d="M329 54Q300 23 264 7T192 -10Q108 -10 64 46T20 194Q20 274 53 345T145 459T279 503Q325 503 353 485T404 428L427 493H509L379 -242H277L329 54ZM265 77T299 103T354 176T374 285Q374 350 349 382T278
415Q234 415 200 387T146 311T126 208Q126 148 150 113T224 77Q265 77 299 103Z" />
<glyph unicode="r" glyph-name="r" horiz-adv-x="318" d="M96 493H188L180 422Q255 508 330 508H351L313 403H275Q247 403 218 385T174 344L113 0H9L96 493Z" />
<glyph unicode="s" glyph-name="s" horiz-adv-x="398" d="M55 -10T-11 31L15 124Q80 74 151 74Q194 74 215 92T237 140Q237 170 219 184T163 211Q126 223 102 236T63 272T48 334Q48 378 69 416T135 479T246 503Q323 503 377 469L352 381Q303 426 237 426Q197 426
172 409T147 358Q147 338 157 326T184 306T239 285Q287 268 315 240T343 158Q343 118 325 80T261 16T143 -10Q55 -10 -11 31Z" />
<glyph unicode="t" glyph-name="t" horiz-adv-x="315" d="M101 -10T76 17T51 86Q51 102 106 413H36L59 493H120L142 611L245 621L222 493H331L316 413H208Q180 252 169 186T157 109Q157 85 171 79T227 72H255L232 -10H153Q101 -10 76 17Z" />
<glyph unicode="u" glyph-name="u" horiz-adv-x="510" d="M108 -10T71 30T34 143Q34 166 42 210L90 493H192L146 223Q140 188 140 167Q140 78 216 78Q277 78 318 129L382 493H484L397 0H303L307 48Q249 -10 179 -10Q108 -10 71 30Z" />
<glyph unicode="v" glyph-name="v" horiz-adv-x="453" d="M36 493H140L192 117L376 493H481L219 0H123L36 493Z" />
<glyph unicode="w" glyph-name="w" horiz-adv-x="676" d="M49 493H155L170 116L324 480H416L442 116L591 493H697L475 0H380L348 350L191 0H97L49 493Z" />
<glyph unicode="x" glyph-name="x" horiz-adv-x="453" d="M157 247L51 493H170L231 313L353 493H474L272 242L389 0H270L201 177L81 0H-38L157 247Z" />
<glyph unicode="y" glyph-name="y" horiz-adv-x="480" d="M141 26L33 493H146L211 143L396 493H509L96 -242H-10L141 26Z" />
<glyph unicode="z" glyph-name="z" horiz-adv-x="440" d="M271 410H53L67 493H452L153 83H372L357 0H-29L271 410Z" />
<glyph unicode="{" glyph-name="braceleft" horiz-adv-x="301" d="M384 750L370 668H343Q292 668 263 645T224 567Q221 546 217 492Q213 438 210 417Q202 372 178 347T111 307Q170 284 170 225Q170 209 164 180T150 120Q130 40 130 17Q130 -21 151 -37T215 -54H242L228
-136H191Q115 -136 79 -105T43 -16Q43 4 49 34T63 94Q74 134 79 161T85 210Q85 243 69 258T18 274L29 340Q74 340 97 365T130 447Q133 468 137 521Q141 575 144 597Q157 668 207 709T347 750H384Z" />
<glyph unicode="|" glyph-name="bar" horiz-adv-x="222" d="M143 750H246L76 -209H-27L143 750Z" />
<glyph unicode="}" glyph-name="braceright" horiz-adv-x="301" d="M216 371T232 356T283 340L272 274Q227 274 204 249T171 167Q168 146 164 93Q160 39 157 17Q144 -54 94 -95T-46 -136H-83L-69 -54H-42Q9 -54 38 -31T77 47Q80 68 84 122Q88 176 91 197Q99 242
123 267T190 307Q131 330 131 389Q131 405 137 434T151 494Q171 574 171 597Q171 635 150 651T86 668H59L73 750H110Q186 750 222 719T258 630Q258 610 252 580T238 520Q227 480 222 453T216 404Q216 371 232 356Z" />
<glyph unicode="~" glyph-name="asciitilde" horiz-adv-x="436" d="M278 292T260 299T221 318Q199 330 187 335T160 340Q141 340 128 329T111 297H34Q47 359 79 392T160 425Q182 425 199 419T242 399Q261 388 273 383T299 378Q317 378 328 389T344 423H421Q397
292 299 292Q278 292 260 299Z" />
<glyph unicode="&#xa0;" glyph-name="uni00A0" horiz-adv-x="207" />
<glyph unicode="&#xa1;" glyph-name="exclamdown" horiz-adv-x="190" d="M170 384H55L75 500H191L170 384ZM141 289L71 -200H-53L51 289L55 316H145L141 289Z" />
<glyph unicode="&#xa2;" glyph-name="cent" horiz-adv-x="449" d="M248 415T208 388T148 315T127 213Q127 148 156 113T245 77Q296 77 356 110L351 24Q305 -3 241 -9L225 -144H141L173 -7Q96 5 59 60T22 200Q22 274 49 339T131 447T261 500L277 633H362L331 502Q394
496 430 471L403 382Q353 415 303 415Q248 415 208 388Z" />
<glyph unicode="&#xa3;" glyph-name="sterling" horiz-adv-x="531" d="M299 616T267 501L237 393H412L398 315H215Q194 242 174 194T127 100H422L405 0H-27Q22 83 52 152T109 315H33L47 393H132L166 513Q194 614 251 664T401 714Q464 714 520 686L490 575Q464
595 441 605T390 616Q299 616 267 501Z" />
<glyph unicode="&#xa4;" glyph-name="currency" horiz-adv-x="635" d="M561 336T537 279T470 180L548 85L506 50L429 145Q352 92 261 92Q173 92 115 142L8 52L-25 91L82 182Q52 230 52 297Q52 360 76 416T143 516L65 611L107 646L185 551Q262 604 352 604Q441
604 498 553L606 644L639 605L531 513Q561 462 561 399Q561 336 537 279ZM156 252T187 218T278 184Q330 184 371 209T435 281T458 385Q458 443 427 477T335 512Q282 512 241 485T178 411T155 309Q156 252 187 218Z" />
<glyph unicode="&#xa5;" glyph-name="yen" horiz-adv-x="564" d="M323 358H439L426 279H287L276 218H414L401 139H262L237 0H130L154 139H15L29 218H168L179 279H40L54 358H170L32 700H144L258 413L469 700H581L323 358Z" />
<glyph unicode="&#xa6;" glyph-name="brokenbar" horiz-adv-x="219" d="M143 750H243L171 342H71L143 750ZM45 198H145L73 -210H-27L45 198Z" />
<glyph unicode="&#xa7;" glyph-name="section" horiz-adv-x="455" d="M265 678T236 657T207 600Q207 571 228 552T295 505Q336 482 361 463T405 413T423 339Q423 288 389 253T289 187Q334 145 334 80Q334 32 308 -5T238 -63T139 -84Q99 -84 63 -73T0 -42L25 35Q54
13 87 1T155 -12Q202 -12 230 9T259 65Q259 102 235 124T159 172Q119 192 94 209T52 253T35 320Q35 374 72 415T176 481Q126 521 126 585Q126 632 151 670T221 729T320 750Q363 750 396 740T461 710L436 633Q372 678 309 678Q265 678 236 657ZM338 356T323 378T289
412T227 448Q175 434 146 408T116 342Q116 306 139 285T210 238Q225 231 242 221Q283 233 310 262T338 324Q338 356 323 378Z" />
<glyph unicode="&#xa8;" glyph-name="dieresis" horiz-adv-x="404" d="M94 674H181L164 591H77L94 674ZM284 674H371L354 591H267L284 674Z" />
<glyph unicode="&#xa9;" glyph-name="copyright" horiz-adv-x="676" d="M223 37T170 70T87 163T58 302Q58 414 105 503T233 642T409 693Q480 693 533 661T615 568T644 429Q644 317 597 228T469 88T293 37Q223 37 170 70ZM390 89T453 135T548 259T581 426Q581 523
535 581T400 640Q313 640 250 594T153 471T120 303Q120 207 166 148T303 89Q390 89 453 135ZM273 195T240 231T207 330Q207 388 231 434T297 506T389 532Q437 532 475 512L454 444Q410 464 376 464Q334 464 309 428T283 339Q283 304 297 283T341 262Q376 262 427
284L422 216Q403 206 378 201T329 195Q273 195 240 231Z" />
<glyph unicode="&#xaa;" glyph-name="ordfeminine" horiz-adv-x="310" d="M99 434T78 452T57 502Q57 559 108 587T235 623Q236 626 236 631Q236 644 226 650T193 657Q156 657 108 640L114 707Q171 727 227 727Q273 727 298 707T323 647Q323 639 321 621L306 540Q305
533 304 528T303 517Q303 509 307 506T320 503H323L305 434H276Q226 434 220 465Q205 450 181 442T133 434Q99 434 78 452ZM226 568Q193 564 171 552T148 516Q148 495 175 495Q196 495 216 509L226 568Z" />
<glyph unicode="&#xab;" glyph-name="guillemotleft" horiz-adv-x="555" d="M18 284L192 490H311L136 284L238 78H119L18 284ZM257 284L431 490H550L376 284L478 78H358L257 284Z" />
<glyph unicode="&#xac;" glyph-name="logicalnot" horiz-adv-x="504" d="M364 324H30L44 406H465L421 151H334L364 324Z" />
<glyph unicode="&#xad;" glyph-name="uni00AD" horiz-adv-x="420" d="M73 355H358L342 267H57L73 355Z" />
<glyph unicode="&#xae;" glyph-name="registered" horiz-adv-x="676" d="M223 37T170 70T87 163T58 302Q58 414 105 503T233 642T409 693Q480 693 533 661T615 568T644 429Q644 317 597 228T469 88T293 37Q223 37 170 70ZM389 89T452 135T549 259T582 427Q582
523 536 581T400 640Q313 640 250 594T154 471T121 304Q121 207 167 148T303 89Q389 89 452 135ZM269 533H383Q426 533 450 515T474 454Q474 417 456 390T409 343L453 208H378L340 323H303L283 208H211L269 533ZM343 387Q398 387 398 444Q398 460 390 468T360 476H331L315
387H343Z" />
<glyph unicode="&#xaf;" glyph-name="overscore" horiz-adv-x="449" d="M94 665H409L394 591H80L94 665Z" />
<glyph unicode="&#xb0;" glyph-name="degree" horiz-adv-x="284" d="M91 482T64 512T36 590Q36 635 56 673T111 733T189 755Q240 755 267 725T294 646Q294 601 274 563T219 504T141 482Q91 482 64 512ZM189 529T214 562T239 639Q239 669 224 688T180 708Q142 708
117 675T91 598Q91 568 106 549T149 529Q189 529 214 562Z" />
<glyph unicode="&#xb1;" glyph-name="plusminus" horiz-adv-x="436" d="M162 313H29L43 391H176L200 525H279L256 391H389L375 313H242L218 179H139L162 313ZM-3 134H343L329 56H-17L-3 134Z" />
<glyph unicode="&#xb2;" glyph-name="uni00B2" horiz-adv-x="318" d="M176 460H290L277 386H16L155 544Q187 580 202 605T217 654Q217 673 206 684T172 695Q146 695 122 684T70 652L77 734Q104 751 137 761T202 772Q252 772 280 746T309 677Q309 636 288 600T222
513L176 460Z" />
<glyph unicode="&#xb3;" glyph-name="uni00B3" horiz-adv-x="333" d="M304 564T304 507Q304 469 283 440T225 393T147 376Q77 376 24 410L56 484Q79 466 100 457T147 448Q178 448 196 462T215 503Q215 524 201 535T158 547H129L142 616H172Q200 616 217 630T235
665Q235 683 224 693T188 704Q145 704 97 674L103 751Q160 776 219 776Q269 776 296 752T324 687Q324 653 305 627T253 585Q304 564 304 507Z" />
<glyph unicode="&#xb4;" glyph-name="acute" horiz-adv-x="403" d="M124 646L313 752L296 636L110 573L124 646Z" />
<glyph unicode="&#xb5;" glyph-name="uni00B5" horiz-adv-x="529" d="M103 493H205L156 212Q152 176 152 165Q152 122 172 100T233 77Q281 77 330 126L395 493H497L440 171Q433 129 433 113Q433 72 466 72H481L452 -10H427Q343 -10 325 53Q266 -11 196 -11Q149
-11 119 11L73 -242H-27L103 493Z" />
<glyph unicode="&#xb6;" glyph-name="paragraph" horiz-adv-x="584" d="M271 238Q202 243 155 272T85 345T62 439Q62 503 98 563T205 661T370 700H610L595 620H530L420 0H354L463 620H392L283 0H229L271 238Z" />
<glyph unicode="&#xb7;" glyph-name="middot" horiz-adv-x="230" d="M66 343H180L157 213H43L66 343Z" />
<glyph unicode="&#xb8;" glyph-name="cedilla" horiz-adv-x="316" d="M240 -54T260 -72T280 -122Q280 -170 244 -200T153 -230Q109 -230 77 -211L103 -159Q131 -176 164 -176Q189 -176 204 -164T219 -134Q219 -101 174 -101Q150 -101 126 -109L172 0H224L197 -54H204Q240
-54 260 -72Z" />
<glyph unicode="&#xb9;" glyph-name="uni00B9" horiz-adv-x="203" d="M102 660Q68 635 36 627L42 698Q68 706 96 723T140 758H202L136 386H54L102 660Z" />
<glyph unicode="&#xba;" glyph-name="ordmasculine" horiz-adv-x="330" d="M126 434T93 468T60 554Q60 600 83 640T147 703T237 727Q297 727 330 694T363 609Q363 558 339 518T275 456T185 434Q126 434 93 468ZM233 500T254 531T276 605Q276 632 263 647T226 662Q190
662 169 631T147 560Q147 532 160 516T197 500Q233 500 254 531Z" />
<glyph unicode="&#xbb;" glyph-name="guillemotright" horiz-adv-x="556" d="M177 284L75 490H193L295 284L120 78H2L177 284ZM415 284L314 490H432L534 284L360 78H241L415 284Z" />
<glyph unicode="&#xbc;" glyph-name="onequarter" horiz-adv-x="626" d="M348 602Q314 577 282 569L288 640Q314 648 342 665T386 700H448L382 328H300L348 602ZM504 700H593L63 0H-27L504 700ZM608 143L596 79H547L533 0H461L475 79H274L535 372H599L559 143H608ZM486
143L507 257L407 143H486Z" />
<glyph unicode="&#xbd;" glyph-name="onehalf" horiz-adv-x="676" d="M504 700H593L63 0H-27L504 700ZM493 74H607L594 0H333L472 158Q504 194 519 219T534 268Q534 287 523 298T489 309Q463 309 439 298T387 266L394 348Q421 365 454 375T519 386Q569 386 597
360T626 291Q626 250 605 214T539 127L493 74ZM349 602Q315 577 283 569L289 640Q315 648 343 665T387 700H449L383 328H301L349 602Z" />
<glyph unicode="&#xbe;" glyph-name="threequarters" horiz-adv-x="728" d="M606 700H695L165 0H75L606 700ZM301 502T301 445Q301 407 280 378T222 331T144 314Q74 314 21 348L53 422Q76 404 97 395T144 386Q175 386 193 400T212 441Q212 462 198 473T155 485H126L139
554H169Q197 554 214 568T232 603Q232 621 221 631T185 642Q142 642 94 612L100 689Q157 714 216 714Q266 714 293 690T321 625Q321 591 302 565T250 523Q301 502 301 445ZM711 143L699 79H650L636 0H564L578 79H377L638 372H702L662 143H711ZM589 143L610 257L510
143H589Z" />
<glyph unicode="&#xbf;" glyph-name="questiondown" horiz-adv-x="448" d="M365 384H249L270 500H385L365 384ZM345 296Q335 240 308 203T231 117Q193 80 175 60T143 15T130 -41Q130 -77 155 -96T219 -116Q285 -116 359 -78L354 -171Q314 -192 271 -203T176 -214Q96
-214 54 -175T10 -71Q10 -28 26 7T66 71T133 139Q180 184 205 216T237 290L242 316H348L345 296Z" />
<glyph unicode="&#xc0;" glyph-name="Agrave" horiz-adv-x="581" d="M314 700H418L525 0H414L388 182H161L72 0H-39L314 700ZM370 281L338 544L214 281H370ZM299 852L317 956L480 848L468 781L299 852Z" />
<glyph unicode="&#xc1;" glyph-name="Aacute" horiz-adv-x="581" d="M314 700H418L525 0H414L388 182H161L72 0H-39L314 700ZM370 281L338 544L214 281H370ZM307 853L496 959L479 843L293 780L307 853Z" />
<glyph unicode="&#xc2;" glyph-name="Acircumflex" horiz-adv-x="581" d="M314 700H418L525 0H414L388 182H161L72 0H-39L314 700ZM370 281L338 544L214 281H370ZM283 848L412 945L519 835L506 768L393 849L267 778L283 848Z" />
<glyph unicode="&#xc3;" glyph-name="Atilde" horiz-adv-x="581" d="M314 700H418L525 0H414L388 182H161L72 0H-39L314 700ZM370 281L338 544L214 281H370ZM448 786T433 792T393 809Q353 830 334 830Q302 830 294 794H220Q231 850 258 879T325 909Q341 909 356
903T393 886Q412 876 425 871T451 865Q482 865 489 904H564Q552 843 527 815T463 786Q448 786 433 792Z" />
<glyph unicode="&#xc4;" glyph-name="Adieresis" horiz-adv-x="581" d="M314 700H418L525 0H414L388 182H161L72 0H-39L314 700ZM370 281L338 544L214 281H370ZM261 881H348L331 798H244L261 881ZM451 881H538L521 798H434L451 881Z" />
<glyph unicode="&#xc5;" glyph-name="Aring" horiz-adv-x="581" d="M314 700H418L525 0H414L388 182H161L72 0H-39L314 700ZM370 281L338 544L214 281H370ZM337 776T315 798T292 854Q292 903 328 938T415 974Q456 974 478 952T501 895Q501 845 466 811T378 776Q337
776 315 798ZM411 822T428 840T446 885Q446 904 435 915T407 927Q383 927 365 908T347 863Q347 845 358 834T386 822Q411 822 428 840Z" />
<glyph unicode="&#xc6;" glyph-name="AE" horiz-adv-x="806" d="M384 700H835L817 601H539L506 415H721L703 316H489L450 99H737L720 0H319L350 176H165L55 0H-53L384 700ZM368 279L424 598L231 279H368Z" />
<glyph unicode="&#xc7;" glyph-name="Ccedilla" horiz-adv-x="574" d="M342 616T283 571T193 452T162 292Q162 196 203 140T331 84Q370 84 406 94T502 126L496 26Q463 12 422 2T341 -13L320 -54H327Q363 -54 383 -72T403 -122Q403 -170 367 -200T276 -230Q232
-230 200 -211L226 -159Q254 -176 287 -176Q312 -176 327 -164T342 -134Q342 -101 297 -101Q273 -101 249 -109L289 -13Q176 -6 111 72T45 285Q45 406 98 504T240 658T436 714Q485 714 532 703T610 673L581 574Q573 577 543 589T482 609T422 616Q342 616 283 571Z"
/>
<glyph unicode="&#xc8;" glyph-name="Egrave" horiz-adv-x="528" d="M150 700H556L538 601H241L208 415H441L423 316H191L152 99H458L441 0H27L150 700ZM287 852L305 956L468 848L456 781L287 852Z" />
<glyph unicode="&#xc9;" glyph-name="Eacute" horiz-adv-x="528" d="M150 700H556L538 601H241L208 415H441L423 316H191L152 99H458L441 0H27L150 700ZM295 853L484 959L467 843L281 780L295 853Z" />
<glyph unicode="&#xca;" glyph-name="Ecircumflex" horiz-adv-x="528" d="M150 700H556L538 601H241L208 415H441L423 316H191L152 99H458L441 0H27L150 700ZM271 848L400 945L507 835L494 768L381 849L255 778L271 848Z" />
<glyph unicode="&#xcb;" glyph-name="Edieresis" horiz-adv-x="528" d="M150 700H556L538 601H241L208 415H441L423 316H191L152 99H458L441 0H27L150 700ZM249 881H336L319 798H232L249 881ZM439 881H526L509 798H422L439 881Z" />
<glyph unicode="&#xcc;" glyph-name="Igrave" horiz-adv-x="264" d="M150 700H256L133 0H27L150 700ZM139 852L157 956L320 848L308 781L139 852Z" />
<glyph unicode="&#xcd;" glyph-name="Iacute" horiz-adv-x="264" d="M150 700H256L133 0H27L150 700ZM147 853L336 959L319 843L133 780L147 853Z" />
<glyph unicode="&#xce;" glyph-name="Icircumflex" horiz-adv-x="264" d="M150 700H256L133 0H27L150 700ZM123 848L252 945L359 835L346 768L233 849L107 778L123 848Z" />
<glyph unicode="&#xcf;" glyph-name="Idieresis" horiz-adv-x="264" d="M150 700H256L133 0H27L150 700ZM101 881H188L171 798H84L101 881ZM291 881H378L361 798H274L291 881Z" />
<glyph unicode="&#xd0;" glyph-name="Eth" horiz-adv-x="688" d="M477 700T536 667T628 570T661 419Q661 294 610 199T470 52T274 0H36L91 313H22L37 399H106L159 700H398Q477 700 536 667ZM372 99T429 139T515 251T545 411Q545 500 504 551T380 602H246L210 399H341L326
313H195L157 99H292Q372 99 429 139Z" />
<glyph unicode="&#xd1;" glyph-name="Ntilde" horiz-adv-x="665" d="M150 700H259L462 200L550 700H657L533 0H445L227 529L133 0H27L150 700ZM482 785T467 790T425 806Q385 823 368 823Q355 823 346 815T334 790H265Q274 839 298 865T360 892Q375 892 389 887T431
871Q446 864 462 859T490 853Q504 853 513 862T524 887H593Q585 837 560 811T497 785Q482 785 467 790Z" />
<glyph unicode="&#xd2;" glyph-name="Ograve" horiz-adv-x="721" d="M228 -14T169 21T77 124T45 284Q45 405 97 503T238 658T431 714Q512 714 571 679T663 576T695 416Q695 295 643 197T502 42T309 -14Q228 -14 169 21ZM401 84T458 129T547 249T579 409Q579 504
538 560T413 616Q338 616 281 571T193 451T162 291Q162 196 202 140T326 84Q401 84 458 129ZM368 852L386 956L549 848L537 781L368 852Z" />
<glyph unicode="&#xd3;" glyph-name="Oacute" horiz-adv-x="721" d="M228 -14T169 21T77 124T45 284Q45 405 97 503T238 658T431 714Q512 714 571 679T663 576T695 416Q695 295 643 197T502 42T309 -14Q228 -14 169 21ZM401 84T458 129T547 249T579 409Q579 504
538 560T413 616Q338 616 281 571T193 451T162 291Q162 196 202 140T326 84Q401 84 458 129ZM376 853L565 959L548 843L362 780L376 853Z" />
<glyph unicode="&#xd4;" glyph-name="Ocircumflex" horiz-adv-x="721" d="M228 -14T169 21T77 124T45 284Q45 405 97 503T238 658T431 714Q512 714 571 679T663 576T695 416Q695 295 643 197T502 42T309 -14Q228 -14 169 21ZM401 84T458 129T547 249T579 409Q579
504 538 560T413 616Q338 616 281 571T193 451T162 291Q162 196 202 140T326 84Q401 84 458 129ZM352 848L481 945L588 835L575 768L462 849L336 778L352 848Z" />
<glyph unicode="&#xd5;" glyph-name="Otilde" horiz-adv-x="721" d="M228 -14T169 21T77 124T45 284Q45 405 97 503T238 658T431 714Q512 714 571 679T663 576T695 416Q695 295 643 197T502 42T309 -14Q228 -14 169 21ZM401 84T458 129T547 249T579 409Q579 504
538 560T413 616Q338 616 281 571T193 451T162 291Q162 196 202 140T326 84Q401 84 458 129ZM517 786T502 792T462 809Q422 830 403 830Q371 830 363 794H289Q300 850 327 879T394 909Q410 909 425 903T462 886Q481 876 494 871T520 865Q551 865 558 904H633Q621
843 596 815T532 786Q517 786 502 792Z" />
<glyph unicode="&#xd6;" glyph-name="Odieresis" horiz-adv-x="721" d="M228 -14T169 21T77 124T45 284Q45 405 97 503T238 658T431 714Q512 714 571 679T663 576T695 416Q695 295 643 197T502 42T309 -14Q228 -14 169 21ZM401 84T458 129T547 249T579 409Q579
504 538 560T413 616Q338 616 281 571T193 451T162 291Q162 196 202 140T326 84Q401 84 458 129ZM330 881H417L400 798H313L330 881ZM520 881H607L590 798H503L520 881Z" />
<glyph unicode="&#xd7;" glyph-name="multiply" horiz-adv-x="448" d="M252 273L346 155L283 103L190 219L54 102L3 163L140 282L45 401L108 454L202 335L341 455L392 394L252 273Z" />
<glyph unicode="&#xd8;" glyph-name="Oslash" horiz-adv-x="721" d="M631 627Q695 547 695 416Q695 295 643 197T502 42T309 -14Q226 -14 166 23L114 -44H19L109 73Q45 151 45 284Q45 405 97 503T238 658T431 714Q514 714 575 676L627 744H722L631 627ZM162 218T185
171L507 589Q469 616 413 616Q338 616 281 571T193 451T162 291Q162 218 185 171ZM579 482T556 529L233 110Q270 84 326 84Q401 84 458 129T547 249T579 409Q579 482 556 529Z" />
<glyph unicode="&#xd9;" glyph-name="Ugrave" horiz-adv-x="677" d="M175 -14T120 43T64 207Q64 249 73 298L144 700H250L187 343Q175 276 175 234Q176 163 205 124T302 84Q395 84 441 154T508 343L571 700H677L606 298Q580 151 499 69T285 -14Q175 -14 120 43ZM348
852L366 956L529 848L517 781L348 852Z" />
<glyph unicode="&#xda;" glyph-name="Uacute" horiz-adv-x="677" d="M175 -14T120 43T64 207Q64 249 73 298L144 700H250L187 343Q175 276 175 234Q176 163 205 124T302 84Q395 84 441 154T508 343L571 700H677L606 298Q580 151 499 69T285 -14Q175 -14 120 43ZM356
853L545 959L528 843L342 780L356 853Z" />
<glyph unicode="&#xdb;" glyph-name="Ucircumflex" horiz-adv-x="677" d="M175 -14T120 43T64 207Q64 249 73 298L144 700H250L187 343Q175 276 175 234Q176 163 205 124T302 84Q395 84 441 154T508 343L571 700H677L606 298Q580 151 499 69T285 -14Q175 -14 120
43ZM332 848L461 945L568 835L555 768L442 849L316 778L332 848Z" />
<glyph unicode="&#xdc;" glyph-name="Udieresis" horiz-adv-x="677" d="M175 -14T120 43T64 207Q64 249 73 298L144 700H250L187 343Q175 276 175 234Q176 163 205 124T302 84Q395 84 441 154T508 343L571 700H677L606 298Q580 151 499 69T285 -14Q175 -14 120
43ZM310 881H397L380 798H293L310 881ZM500 881H587L570 798H483L500 881Z" />
<glyph unicode="&#xdd;" glyph-name="Yacute" horiz-adv-x="565" d="M230 319L76 700H188L302 413L513 700H625L338 319L281 0H174L230 319ZM294 853L483 959L466 843L280 780L294 853Z" />
<glyph unicode="&#xde;" glyph-name="Thorn" horiz-adv-x="524" d="M143 700H250L223 548H350Q440 548 487 509T534 398Q534 298 467 240T286 182H159L126 0H19L143 700ZM292 275Q355 275 389 302T423 381Q423 456 324 456H207L175 275H292Z" />
<glyph unicode="&#xdf;" glyph-name="germandbls" horiz-adv-x="579" d="M241 -14T187 -2L201 86Q256 73 305 73Q358 73 393 97T429 166Q429 198 412 218T358 266Q322 292 305 312T287 365Q287 397 311 428T385 505Q420 536 435 558T450 612Q450 642 428 659T366
677Q307 677 271 643T224 545L128 0H26L99 413H29L52 493H113L122 543Q141 651 211 707T384 764Q462 764 507 729T553 634Q553 586 534 553T473 481L454 463Q420 431 407 415T394 381Q394 362 406 348T448 311Q489 280 511 251T533 176Q533 119 501 76T413 10T294
-14Q241 -14 187 -2Z" />
<glyph unicode="&#xe0;" glyph-name="agrave" horiz-adv-x="555" d="M113 -10T67 45T20 190Q20 269 54 341T149 458T286 503Q365 503 400 447L418 493H507L448 148Q444 127 444 109Q444 87 454 80T492 72L466 -10Q425 -10 403 -6T365 12T341 57Q279 -10 190 -10Q113
-10 67 45ZM267 77T301 104T355 178T374 282Q374 348 348 381T276 415Q234 415 200 387T146 311T126 208Q126 149 150 113T224 77Q267 77 301 104ZM260 645L278 749L441 641L429 574L260 645Z" />
<glyph unicode="&#xe1;" glyph-name="aacute" horiz-adv-x="555" d="M113 -10T67 45T20 190Q20 269 54 341T149 458T286 503Q365 503 400 447L418 493H507L448 148Q444 127 444 109Q444 87 454 80T492 72L466 -10Q425 -10 403 -6T365 12T341 57Q279 -10 190 -10Q113
-10 67 45ZM267 77T301 104T355 178T374 282Q374 348 348 381T276 415Q234 415 200 387T146 311T126 208Q126 149 150 113T224 77Q267 77 301 104ZM268 646L457 752L440 636L254 573L268 646Z" />
<glyph unicode="&#xe2;" glyph-name="acircumflex" horiz-adv-x="555" d="M113 -10T67 45T20 190Q20 269 54 341T149 458T286 503Q365 503 400 447L418 493H507L448 148Q444 127 444 109Q444 87 454 80T492 72L466 -10Q425 -10 403 -6T365 12T341 57Q279 -10 190
-10Q113 -10 67 45ZM267 77T301 104T355 178T374 282Q374 348 348 381T276 415Q234 415 200 387T146 311T126 208Q126 149 150 113T224 77Q267 77 301 104ZM244 641L373 738L480 628L467 561L354 642L228 571L244 641Z" />
<glyph unicode="&#xe3;" glyph-name="atilde" horiz-adv-x="555" d="M113 -10T67 45T20 190Q20 269 54 341T149 458T286 503Q365 503 400 447L418 493H507L448 148Q444 127 444 109Q444 87 454 80T492 72L466 -10Q425 -10 403 -6T365 12T341 57Q279 -10 190 -10Q113
-10 67 45ZM267 77T301 104T355 178T374 282Q374 348 348 381T276 415Q234 415 200 387T146 311T126 208Q126 149 150 113T224 77Q267 77 301 104ZM409 579T394 585T354 602Q314 623 295 623Q263 623 255 587H181Q192 643 219 672T286 702Q302 702 317 696T354
679Q373 669 386 664T412 658Q443 658 450 697H525Q513 636 488 608T424 579Q409 579 394 585Z" />
<glyph unicode="&#xe4;" glyph-name="adieresis" horiz-adv-x="555" d="M113 -10T67 45T20 190Q20 269 54 341T149 458T286 503Q365 503 400 447L418 493H507L448 148Q444 127 444 109Q444 87 454 80T492 72L466 -10Q425 -10 403 -6T365 12T341 57Q279 -10 190
-10Q113 -10 67 45ZM267 77T301 104T355 178T374 282Q374 348 348 381T276 415Q234 415 200 387T146 311T126 208Q126 149 150 113T224 77Q267 77 301 104ZM222 674H309L292 591H205L222 674ZM412 674H499L482 591H395L412 674Z" />
<glyph unicode="&#xe5;" glyph-name="aring" horiz-adv-x="555" d="M113 -10T67 45T20 190Q20 269 54 341T149 458T286 503Q365 503 400 447L418 493H507L448 148Q444 127 444 109Q444 87 454 80T492 72L466 -10Q425 -10 403 -6T365 12T341 57Q279 -10 190 -10Q113
-10 67 45ZM267 77T301 104T355 178T374 282Q374 348 348 381T276 415Q234 415 200 387T146 311T126 208Q126 149 150 113T224 77Q267 77 301 104ZM298 569T276 591T253 647Q253 696 289 731T376 767Q417 767 439 745T462 688Q462 638 427 604T339 569Q298 569
276 591ZM372 615T389 633T407 678Q407 697 396 708T368 720Q344 720 326 701T308 656Q308 638 319 627T347 615Q372 615 389 633Z" />
<glyph unicode="&#xe6;" glyph-name="ae" horiz-adv-x="741" d="M56 -14T24 15T-8 96Q-8 211 84 257T294 309Q294 368 280 391T219 414Q190 414 161 407T93 382L98 462Q186 503 263 503Q380 503 385 393Q408 446 458 474T569 503Q637 503 677 460T717 340Q717
313 712 291T696 238H397Q395 206 395 195Q398 135 428 104T507 72Q568 72 649 110L644 29Q564 -10 485 -10Q347 -10 319 97Q242 -14 117 -14Q56 -14 24 15ZM620 307Q624 324 624 343Q622 415 549 415Q504 415 469 388T414 307H620ZM195 68T233 101T283 199L289
240Q246 240 203 228T130 187T100 117Q100 93 114 81T153 68Q195 68 233 101Z" />
<glyph unicode="&#xe7;" glyph-name="ccedilla" horiz-adv-x="424" d="M247 415T207 388T147 315T126 213Q126 148 155 113T244 77Q295 77 355 110L350 24Q304 -3 239 -9L216 -54H223Q259 -54 279 -72T299 -122Q299 -170 263 -200T172 -230Q128 -230 96 -211L122
-159Q150 -176 183 -176Q208 -176 223 -164T238 -134Q238 -101 193 -101Q169 -101 145 -109L187 -9Q102 -1 62 55T21 200Q21 280 54 349T150 461T303 503Q342 503 374 495T429 471L402 382Q353 415 302 415Q247 415 207 388Z" />
<glyph unicode="&#xe8;" glyph-name="egrave" horiz-adv-x="468" d="M126 -10T73 49T20 203Q20 281 54 350T151 461T292 503Q365 503 404 467T444 371Q444 299 385 253T212 206Q165 206 128 214Q131 77 251 77Q286 77 323 85T393 110L386 28Q319 -10 227 -10Q126
-10 73 49ZM283 274T318 300T354 362Q354 390 334 402T284 415Q235 415 197 380T138 282Q166 274 200 274Q283 274 318 300ZM236 645L254 749L417 641L405 574L236 645Z" />
<glyph unicode="&#xe9;" glyph-name="eacute" horiz-adv-x="468" d="M126 -10T73 49T20 203Q20 281 54 350T151 461T292 503Q365 503 404 467T444 371Q444 299 385 253T212 206Q165 206 128 214Q131 77 251 77Q286 77 323 85T393 110L386 28Q319 -10 227 -10Q126
-10 73 49ZM283 274T318 300T354 362Q354 390 334 402T284 415Q235 415 197 380T138 282Q166 274 200 274Q283 274 318 300ZM244 646L433 752L416 636L230 573L244 646Z" />
<glyph unicode="&#xea;" glyph-name="ecircumflex" horiz-adv-x="468" d="M126 -10T73 49T20 203Q20 281 54 350T151 461T292 503Q365 503 404 467T444 371Q444 299 385 253T212 206Q165 206 128 214Q131 77 251 77Q286 77 323 85T393 110L386 28Q319 -10 227
-10Q126 -10 73 49ZM283 274T318 300T354 362Q354 390 334 402T284 415Q235 415 197 380T138 282Q166 274 200 274Q283 274 318 300ZM220 641L349 738L456 628L443 561L330 642L204 571L220 641Z" />
<glyph unicode="&#xeb;" glyph-name="edieresis" horiz-adv-x="468" d="M126 -10T73 49T20 203Q20 281 54 350T151 461T292 503Q365 503 404 467T444 371Q444 299 385 253T212 206Q165 206 128 214Q131 77 251 77Q286 77 323 85T393 110L386 28Q319 -10 227 -10Q126
-10 73 49ZM283 274T318 300T354 362Q354 390 334 402T284 415Q235 415 197 380T138 282Q166 274 200 274Q283 274 318 300ZM198 674H285L268 591H181L198 674ZM388 674H475L458 591H371L388 674Z" />
<glyph unicode="&#xec;" glyph-name="igrave" horiz-adv-x="223" d="M96 493H198L111 0H9L96 493ZM82 645L100 749L263 641L251 574L82 645Z" />
<glyph unicode="&#xed;" glyph-name="iacute" horiz-adv-x="223" d="M96 493H198L111 0H9L96 493ZM90 646L279 752L262 636L76 573L90 646Z" />
<glyph unicode="&#xee;" glyph-name="icircumflex" horiz-adv-x="223" d="M96 493H198L111 0H9L96 493ZM66 641L195 738L302 628L289 561L176 642L50 571L66 641Z" />
<glyph unicode="&#xef;" glyph-name="idieresis" horiz-adv-x="223" d="M96 493H198L111 0H9L96 493ZM300 674H387L370 591H283L300 674ZM490 674H577L560 591H473L490 674Z" />
<glyph unicode="&#xf0;" glyph-name="eth" horiz-adv-x="491" d="M375 581Q449 479 449 335Q449 232 417 153T326 31T192 -12Q107 -12 57 39T7 172Q7 240 36 298T117 391T235 426Q278 426 307 410T353 368Q353 471 302 550L181 498L153 557L259 602Q228 631 183
654L217 701Q282 676 329 632L431 676L458 616L375 581ZM235 77T264 96T310 151T328 233Q328 281 306 309T243 338Q205 338 175 317T129 261T112 185Q112 137 135 107T202 77Q235 77 264 96Z" />
<glyph unicode="&#xf1;" glyph-name="ntilde" horiz-adv-x="522" d="M96 493H183V449Q216 478 249 490T322 503Q398 503 434 461T470 342Q470 323 461 263T415 0H313Q343 173 354 243T366 328Q366 373 347 394T286 415Q216 415 174 358L111 0H9L96 493ZM388 576T373
582T333 599Q293 620 274 620Q242 620 234 584H160Q171 640 198 669T265 699Q281 699 296 693T333 676Q352 666 365 661T391 655Q422 655 429 694H504Q492 633 467 605T403 576Q388 576 373 582Z" />
<glyph unicode="&#xf2;" glyph-name="ograve" horiz-adv-x="526" d="M118 -10T69 48T20 200Q20 279 55 349T154 461T296 503Q390 503 439 444T489 292Q489 213 453 144T354 32T212 -10Q118 -10 69 48ZM273 77T309 105T364 180T384 285Q384 349 358 382T282 415Q236
415 200 388T144 313T124 208Q124 144 149 111T226 77Q273 77 309 105ZM236 645L254 749L417 641L405 574L236 645Z" />
<glyph unicode="&#xf3;" glyph-name="oacute" horiz-adv-x="526" d="M118 -10T69 48T20 200Q20 279 55 349T154 461T296 503Q390 503 439 444T489 292Q489 213 453 144T354 32T212 -10Q118 -10 69 48ZM273 77T309 105T364 180T384 285Q384 349 358 382T282 415Q236
415 200 388T144 313T124 208Q124 144 149 111T226 77Q273 77 309 105ZM244 646L433 752L416 636L230 573L244 646Z" />
<glyph unicode="&#xf4;" glyph-name="ocircumflex" horiz-adv-x="526" d="M118 -10T69 48T20 200Q20 279 55 349T154 461T296 503Q390 503 439 444T489 292Q489 213 453 144T354 32T212 -10Q118 -10 69 48ZM273 77T309 105T364 180T384 285Q384 349 358 382T282
415Q236 415 200 388T144 313T124 208Q124 144 149 111T226 77Q273 77 309 105ZM220 641L349 738L456 628L443 561L330 642L204 571L220 641Z" />
<glyph unicode="&#xf5;" glyph-name="otilde" horiz-adv-x="526" d="M118 -10T69 48T20 200Q20 279 55 349T154 461T296 503Q390 503 439 444T489 292Q489 213 453 144T354 32T212 -10Q118 -10 69 48ZM273 77T309 105T364 180T384 285Q384 349 358 382T282 415Q236
415 200 388T144 313T124 208Q124 144 149 111T226 77Q273 77 309 105ZM385 579T370 585T330 602Q290 623 271 623Q239 623 231 587H157Q168 643 195 672T262 702Q278 702 293 696T330 679Q349 669 362 664T388 658Q419 658 426 697H501Q489 636 464 608T400 579Q385
579 370 585Z" />
<glyph unicode="&#xf6;" glyph-name="odieresis" horiz-adv-x="526" d="M118 -10T69 48T20 200Q20 279 55 349T154 461T296 503Q390 503 439 444T489 292Q489 213 453 144T354 32T212 -10Q118 -10 69 48ZM273 77T309 105T364 180T384 285Q384 349 358 382T282
415Q236 415 200 388T144 313T124 208Q124 144 149 111T226 77Q273 77 309 105ZM198 674H285L268 591H181L198 674ZM388 674H475L458 591H371L388 674Z" />
<glyph unicode="&#xf7;" glyph-name="divide" horiz-adv-x="466" d="M197 505H300L281 397H179L197 505ZM23 321H411L396 239H9L23 321ZM137 163H239L221 54H118L137 163Z" />
<glyph unicode="&#xf8;" glyph-name="oslash" horiz-adv-x="526" d="M443 439Q489 383 489 292Q489 213 453 144T354 32T212 -10Q159 -10 119 10L81 -40H-2L67 51Q20 107 20 200Q20 279 55 349T154 461T296 503Q351 503 392 481L429 530H512L443 439ZM124 167T134
140L333 403Q312 415 282 415Q236 415 200 388T144 313T124 208Q124 167 134 140ZM384 322T375 349L177 88Q199 77 226 77Q273 77 309 105T364 180T384 285Q384 322 375 349Z" />
<glyph unicode="&#xf9;" glyph-name="ugrave" horiz-adv-x="510" d="M108 -10T71 30T34 143Q34 166 42 210L90 493H192L146 223Q140 188 140 167Q140 78 216 78Q277 78 318 129L382 493H484L397 0H303L307 48Q249 -10 179 -10Q108 -10 71 30ZM222 645L240 749L403
641L391 574L222 645Z" />
<glyph unicode="&#xfa;" glyph-name="uacute" horiz-adv-x="510" d="M108 -10T71 30T34 143Q34 166 42 210L90 493H192L146 223Q140 188 140 167Q140 78 216 78Q277 78 318 129L382 493H484L397 0H303L307 48Q249 -10 179 -10Q108 -10 71 30ZM230 646L419 752L402
636L216 573L230 646Z" />
<glyph unicode="&#xfb;" glyph-name="ucircumflex" horiz-adv-x="510" d="M108 -10T71 30T34 143Q34 166 42 210L90 493H192L146 223Q140 188 140 167Q140 78 216 78Q277 78 318 129L382 493H484L397 0H303L307 48Q249 -10 179 -10Q108 -10 71 30ZM206 641L335
738L442 628L429 561L316 642L190 571L206 641Z" />
<glyph unicode="&#xfc;" glyph-name="udieresis" horiz-adv-x="510" d="M108 -10T71 30T34 143Q34 166 42 210L90 493H192L146 223Q140 188 140 167Q140 78 216 78Q277 78 318 129L382 493H484L397 0H303L307 48Q249 -10 179 -10Q108 -10 71 30ZM184 674H271L254
591H167L184 674ZM374 674H461L444 591H357L374 674Z" />
<glyph unicode="&#xfd;" glyph-name="yacute" horiz-adv-x="480" d="M141 26L33 493H146L211 143L396 493H509L96 -242H-10L141 26ZM214 646L403 752L386 636L200 573L214 646Z" />
<glyph unicode="&#xfe;" glyph-name="thorn" horiz-adv-x="535" d="M141 750H243L189 449Q251 503 330 503Q410 503 453 445T497 294Q497 212 466 143T378 32T249 -10Q161 -10 121 60L68 -242H-34L141 750ZM285 77T319 105T372 182T391 286Q391 345 368 380T298
415Q256 415 221 389T165 315T144 205Q144 140 170 109T243 77Q285 77 319 105Z" />
<glyph unicode="&#xff;" glyph-name="ydieresis" horiz-adv-x="480" d="M141 26L33 493H146L211 143L396 493H509L96 -242H-10L141 26ZM168 674H255L238 591H151L168 674ZM358 674H445L428 591H341L358 674Z" />
<glyph unicode="&#x2013;" glyph-name="endash" horiz-adv-x="629" d="M16 355H629L614 267H0L16 355Z" />
<glyph unicode="&#x2014;" glyph-name="emdash" horiz-adv-x="710" d="M16 355H710L695 267H0L16 355Z" />
<glyph unicode="&#x2018;" glyph-name="quoteleft" horiz-adv-x="194" d="M230 700L172 589H212L192 473H76L95 578L173 700H230Z" />
<glyph unicode="&#x2019;" glyph-name="quoteright" horiz-adv-x="181" d="M64 473L122 584H82L102 700H218L199 595L121 473H64Z" />
<glyph unicode="&#x201a;" glyph-name="quotesinglbase" horiz-adv-x="191" d="M-29 -111L29 0H-11L9 116H125L106 11L28 -111H-29Z" />
<glyph unicode="&#x201c;" glyph-name="quotedblleft" horiz-adv-x="364" d="M231 704L173 593H213L193 477H77L96 582L174 704H231ZM401 704L343 593H383L363 477H247L266 582L344 704H401Z" />
<glyph unicode="&#x201d;" glyph-name="quotedblright" horiz-adv-x="351" d="M64 473L122 584H82L102 700H218L199 595L121 473H64ZM234 473L292 584H252L272 700H388L369 595L291 473H234Z" />
<glyph unicode="&#x201e;" glyph-name="quotedblbase" horiz-adv-x="361" d="M-29 -111L29 0H-11L9 116H125L106 11L28 -111H-29ZM141 -111L199 0H159L179 116H295L276 11L198 -111H141Z" />
<glyph unicode="&#x2022;" glyph-name="bullet" horiz-adv-x="289" d="M86 169T63 195T39 261Q39 294 56 323T101 369T160 387Q196 387 219 361T243 295Q243 262 226 233T181 187T122 169Q86 169 63 195Z" />
<glyph unicode="&#x2039;" glyph-name="guilsinglleft" horiz-adv-x="320" d="M15 284L194 490H315L137 284L243 78H122L15 284Z" />
<glyph unicode="&#x203a;" glyph-name="guilsinglright" horiz-adv-x="321" d="M180 284L75 490H196L302 284L123 78H2L180 284Z" />
</font>
</defs>
</svg>
