<?xml version="1.0" standalone="no"?>
<!DOCTYPE svg PUBLIC "-//W3C//DTD SVG 1.1//EN" "http://www.w3.org/Graphics/SVG/1.1/DTD/svg11.dtd">
<svg xmlns="http://www.w3.org/2000/svg">
<defs >
<font id="Cabin" horiz-adv-x="526" ><font-face
    font-family="Cabin"
    units-per-em="1000"
    panose-1="0 0 8 0 0 0 0 0 0 0"
    ascent="965"
    descent="-250"
    alphabetic="0" />
<glyph unicode=" " glyph-name="space" horiz-adv-x="216" />
<glyph unicode="!" glyph-name="exclam" horiz-adv-x="209" d="M50 236L121 700H245L152 236L147 207H45L50 236ZM18 136H148L124 0H-6L18 136Z" />
<glyph unicode="&quot;" glyph-name="quotedbl" horiz-adv-x="340" d="M76 700H200L144 500H60L76 700ZM246 700H370L314 500H230L246 700Z" />
<glyph unicode="#" glyph-name="numbersign" horiz-adv-x="688" d="M130 211H18L81 315H188L240 414H124L173 512H293L397 700H490L388 512H494L596 700H689L587 512H693L642 414H533L481 315H601L535 211H424L304 -11H210L329 211H225L103 -11H11L130 211ZM387
315L441 414H334L280 315H387Z" />
<glyph unicode="$" glyph-name="dollar" horiz-adv-x="568" d="M262 592T228 572T193 510Q193 475 221 457T310 417Q372 396 411 376T477 319T504 221Q504 167 481 118T404 33T267 -11L251 -144H153L183 -13Q78 -8 -10 37L30 183Q66 151 116 130T228 109Q357 109
357 194Q357 237 328 260T224 310Q167 330 132 352T79 409T60 496Q60 559 93 608T187 686T328 714H331L346 844H444L412 707Q454 700 489 687T548 660L512 529Q457 562 413 577T318 592Q262 592 228 572Z" />
<glyph unicode="%" glyph-name="percent" horiz-adv-x="883" d="M102 314T66 355T30 466Q30 531 56 588T131 679T240 714Q306 714 343 674T381 566Q381 499 354 442T279 349T170 314Q102 314 66 355ZM214 401T235 425T268 485T279 556Q279 591 265 609T225 627Q180
627 156 578T132 470Q132 401 185 401Q214 401 235 425ZM652 700H751L215 0H115L652 700ZM554 -14T518 27T482 138Q482 203 508 260T583 351T692 386Q758 386 795 346T833 238Q833 171 806 114T731 21T622 -14Q554 -14 518 27ZM666 73T687 97T720 157T731 228Q731
263 717 281T677 299Q632 299 608 250T584 142Q584 73 637 73Q666 73 687 97Z" />
<glyph unicode="&amp;" glyph-name="ampersand" horiz-adv-x="605" d="M106 -24T58 22T9 140Q9 211 50 263T164 367Q119 449 119 513Q119 570 152 613T237 679T346 703Q410 703 445 671T480 583Q480 535 456 497T399 433T311 371L409 211Q420 246 435 329L439
352H559Q550 297 530 236T474 120L556 0H410L388 34Q312 -24 203 -24Q106 -24 58 22ZM318 467T342 495T367 560Q367 584 356 594T324 604Q289 604 266 582T243 519Q243 483 270 432Q318 467 342 495ZM296 71T338 105L211 300Q178 266 160 232T142 158Q142 71 237
71Q296 71 338 105Z" />
<glyph unicode="&apos;" glyph-name="quotesingle" horiz-adv-x="170" d="M76 700H200L144 500H60L76 700Z" />
<glyph unicode="(" glyph-name="parenleft" horiz-adv-x="331" d="M87 -67T69 3T50 156Q50 477 270 750H381Q281 618 226 459T171 142Q171 -4 225 -136H119Q87 -67 69 3Z" />
<glyph unicode=")" glyph-name="parenright" horiz-adv-x="331" d="M244 681T262 611T281 458Q281 137 61 -136H-50Q50 -4 105 155T160 472Q160 618 106 750H212Q244 681 262 611Z" />
<glyph unicode="*" glyph-name="asterisk" horiz-adv-x="427" d="M187 562L73 636L126 698L225 618L244 755H319L290 619L417 698L447 635L308 559L426 483L374 421L269 504L249 362H174L206 503L77 424L46 487L187 562Z" />
<glyph unicode="+" glyph-name="plus" horiz-adv-x="430" d="M134 230H6L22 324H150L174 458H276L252 324H380L364 230H236L212 96H110L134 230Z" />
<glyph unicode="," glyph-name="comma" horiz-adv-x="200" d="M-28 -120L37 0H-14L10 136H140L118 12L30 -120H-28Z" />
<glyph unicode="-" glyph-name="hyphen" horiz-adv-x="409" d="M62 358H359L342 264H44L62 358Z" />
<glyph unicode="." glyph-name="period" horiz-adv-x="200" d="M10 136H140L116 0H-14L10 136Z" />
<glyph unicode="/" glyph-name="slash" horiz-adv-x="351" d="M362 700H491L89 -85H-40L362 700Z" />
<glyph unicode="0" glyph-name="zero" horiz-adv-x="691" d="M162 -14T100 59T38 260Q38 377 83 481T211 650T399 714Q509 714 571 642T633 446Q633 329 587 223T459 52T271 -14Q162 -14 100 59ZM358 101T406 152T479 281T504 437Q504 518 471 559T379 601Q311
601 263 552T191 425T166 266Q166 183 199 142T291 101Q358 101 406 152Z" />
<glyph unicode="1" glyph-name="one" horiz-adv-x="363" d="M159 519Q111 491 64 483L72 591Q107 598 154 631T221 700H319L195 0H67L159 519Z" />
<glyph unicode="2" glyph-name="two" horiz-adv-x="520" d="M204 283Q283 379 311 424T340 514Q340 552 321 573T265 594Q219 594 177 573T84 509L91 638Q143 676 195 695T308 714Q387 714 428 671T470 557Q470 502 448 450T388 345T283 217L199 120H425L404 0H-30L204
283Z" />
<glyph unicode="3" glyph-name="three" horiz-adv-x="524" d="M388 356T414 315T440 215Q440 147 406 95T312 15T180 -14Q65 -14 -30 46L20 154Q98 96 183 96Q242 96 276 127T311 213Q311 305 199 305H137L158 425H218Q277 425 313 453T350 527Q350 562 327 583T260
604Q187 604 95 552L96 665Q189 714 291 714Q377 714 425 671T474 555Q474 495 438 447T341 375Q388 356 414 315Z" />
<glyph unicode="4" glyph-name="four" horiz-adv-x="591" d="M541 264L522 160H442L414 0H295L323 160H-26L451 700H538L461 264H541ZM342 264L379 477L193 264H342Z" />
<glyph unicode="5" glyph-name="five" horiz-adv-x="507" d="M237 576L194 438Q222 440 237 440Q328 440 381 389T435 248Q435 172 398 113T298 20T162 -13Q49 -13 -30 45L29 153Q99 102 171 102Q230 102 269 136T308 228Q308 279 276 307T183 335Q118 335 51
321L163 700H487L457 576H237Z" />
<glyph unicode="6" glyph-name="six" horiz-adv-x="576" d="M408 421T456 371T505 238Q505 167 471 110T376 19T242 -14Q179 -14 131 11T57 84T30 195Q30 298 88 400T240 584T438 714L510 634Q430 599 339 534T196 385Q253 421 329 421Q408 421 456 371ZM310 92T348
129T386 223Q386 263 360 289T292 315Q235 315 197 278T158 184Q158 144 185 118T253 92Q310 92 348 129Z" />
<glyph unicode="7" glyph-name="seven" horiz-adv-x="518" d="M558 700L154 0H20L353 580H89L110 700H558Z" />
<glyph unicode="8" glyph-name="eight" horiz-adv-x="592" d="M472 357T491 321T511 239Q511 167 474 109T374 19T236 -14Q138 -14 81 34T24 163Q24 236 62 293T165 382Q116 424 114 493Q114 556 146 606T234 685T357 714Q445 714 488 671T532 561Q532 504 506
457T435 381Q472 357 491 321ZM291 614T259 584T227 508Q228 475 249 454T309 433Q357 433 388 464T419 541Q419 575 400 594T341 614Q291 614 259 584ZM312 96T352 132T393 226Q393 268 366 294T289 320Q226 320 186 282T145 185Q145 144 172 120T249 96Q312 96
352 132Z" />
<glyph unicode="9" glyph-name="nine" horiz-adv-x="584" d="M391 714T439 689T513 616T540 505Q540 402 482 300T330 116T132 -14L60 66Q140 101 231 166T374 315Q317 279 241 279Q162 279 114 329T65 462Q65 533 99 590T194 681T328 714Q391 714 439 689ZM184
437T210 411T278 385Q335 385 373 422T412 516Q412 556 385 582T317 608Q260 608 222 571T184 477Q184 437 210 411Z" />
<glyph unicode=":" glyph-name="colon" horiz-adv-x="200" d="M74 500H204L180 364H50L74 500ZM10 136H140L116 0H-14L10 136Z" />
<glyph unicode=";" glyph-name="semicolon" horiz-adv-x="200" d="M-28 -120L37 0H-14L10 136H140L118 12L30 -120H-28ZM74 500H204L180 364H50L74 500Z" />
<glyph unicode="&lt;" glyph-name="less" horiz-adv-x="427" d="M30 329L405 488L386 381L124 274L348 168L331 67L12 225L30 329Z" />
<glyph unicode="=" glyph-name="equal" horiz-adv-x="450" d="M40 404H410L394 312H24L40 404ZM12 242H382L366 150H-4L12 242Z" />
<glyph unicode="&gt;" glyph-name="greater" horiz-adv-x="399" d="M345 226L-30 67L-11 174L251 281L27 387L44 488L363 330L345 226Z" />
<glyph unicode="?" glyph-name="question" horiz-adv-x="477" d="M104 217Q113 270 141 306T216 383Q257 418 275 436T307 477T321 530Q321 559 301 575T244 591Q206 591 171 582T94 553L100 671Q148 692 193 703T296 714Q377 714 422 675T467 570Q467 510 434
462T338 361Q293 323 268 293T236 223L234 207H103L104 217ZM90 136H220L196 0H66L90 136Z" />
<glyph unicode="@" glyph-name="at" horiz-adv-x="696" d="M126 -87T74 -33T21 117Q21 234 84 334T248 494T456 553Q552 553 604 499T657 350Q657 292 637 233T576 134T478 94Q461 94 453 101T444 128Q444 154 454 183T491 269Q521 331 540 379Q523 402 497 417T433
432Q369 432 299 385T183 267T136 126Q136 88 153 64T207 40Q251 40 306 71T400 156Q399 151 394 136T389 103Q389 78 399 60T433 42Q458 42 499 61T569 106Q507 19 413 -34T220 -87Q126 -87 74 -33ZM233 106T225 119T217 153Q217 208 253 258T340 340T431 371Q466
371 470 349Q452 297 412 240T326 144T250 106Q233 106 225 119Z" />
<glyph unicode="A" glyph-name="A" horiz-adv-x="607" d="M319 700H439L554 0H421L394 169H176L90 0H-43L319 700ZM372 293L343 498L242 293H372Z" />
<glyph unicode="B" glyph-name="B" horiz-adv-x="616" d="M149 700H357Q454 700 510 664T566 542Q566 487 541 443T470 371Q520 354 545 319T571 232Q571 160 534 108T435 28T299 0H26L149 700ZM334 419Q377 419 405 447T434 523Q434 559 417 575T365 591H258L228
419H334ZM294 109Q353 109 391 140T429 229Q429 272 404 295T330 318H210L173 109H294Z" />
<glyph unicode="C" glyph-name="C" horiz-adv-x="593" d="M235 -14T172 22T76 125T42 287Q42 408 96 505T243 658T447 714Q496 714 545 703T629 673L593 551Q504 591 430 591Q351 591 296 552T212 446T183 299Q183 109 346 109Q420 109 522 149L515 27Q475 8 422
-3T320 -14Q235 -14 172 22Z" />
<glyph unicode="D" glyph-name="D" horiz-adv-x="702" d="M149 700H401Q529 700 603 624T678 408Q678 290 625 197T480 52T278 0H26L149 700ZM300 123Q375 123 428 159T509 258T537 396Q537 485 498 531T380 577H256L176 123H300Z" />
<glyph unicode="E" glyph-name="E" horiz-adv-x="555" d="M149 700H583L561 576H259L233 427H466L444 303H211L179 124H491L469 0H26L149 700Z" />
<glyph unicode="F" glyph-name="F" horiz-adv-x="513" d="M149 700H564L542 576H256L229 427H451L429 303H207L154 0H26L149 700Z" />
<glyph unicode="G" glyph-name="G" horiz-adv-x="646" d="M233 -14T171 22T76 127T42 289Q42 408 96 505T242 658T446 714Q498 714 554 703T643 673L607 551Q570 568 522 579T430 591Q351 591 296 551T212 445T184 304Q184 212 226 161T350 109Q387 109 440 120L462
245H393L412 351H608L553 39Q514 17 443 2T315 -14Q233 -14 171 22Z" />
<glyph unicode="H" glyph-name="H" horiz-adv-x="718" d="M149 700H277L229 427H536L584 700H712L589 0H461L514 303H207L154 0H26L149 700Z" />
<glyph unicode="I" glyph-name="I" horiz-adv-x="283" d="M149 700H277L154 0H26L149 700Z" />
<glyph unicode="J" glyph-name="J" horiz-adv-x="283" d="M-63 -76H-33Q-9 -76 4 -57T26 4L149 700H277L149 -24Q136 -97 88 -134T-32 -172H-70L-63 -76Z" />
<glyph unicode="K" glyph-name="K" horiz-adv-x="606" d="M149 700H277L154 0H26L149 700ZM228 370L511 700H666L366 370L541 0H402L228 370Z" />
<glyph unicode="L" glyph-name="L" horiz-adv-x="490" d="M149 700H277L176 124H447L425 0H26L149 700Z" />
<glyph unicode="M" glyph-name="M" horiz-adv-x="809" d="M209 700H320L419 381L631 700H741L712 0H579L607 465L378 147L263 465L125 0H-8L209 700Z" />
<glyph unicode="N" glyph-name="N" horiz-adv-x="688" d="M149 700H274L474 248L554 700H682L558 0H454L239 480L154 0H26L149 700Z" />
<glyph unicode="O" glyph-name="O" horiz-adv-x="742" d="M236 -14T173 22T76 126T42 287Q42 407 96 504T242 658T441 714Q526 714 589 678T686 574T720 413Q720 293 666 196T520 42T321 -14Q236 -14 173 22ZM413 109T467 149T549 257T578 402Q578 492 539 541T420
591Q348 591 294 551T212 443T183 298Q183 208 222 159T341 109Q413 109 467 149Z" />
<glyph unicode="P" glyph-name="P" horiz-adv-x="587" d="M149 700H387Q490 700 545 648T600 505Q600 417 564 355T462 262T310 230H194L153 0H26L149 700ZM329 350Q392 350 429 386T467 495Q467 544 445 568T373 593H258L215 350H329Z" />
<glyph unicode="Q" glyph-name="Q" horiz-adv-x="742" d="M234 -14T172 22T76 127T42 287Q42 406 96 504T242 658T441 714Q526 714 589 678T686 574T720 418Q720 266 616 130L666 79L576 -10L519 47Q476 17 424 2T318 -14Q234 -14 172 22ZM390 109T430 132L365
203L456 292L524 218Q549 263 563 309T577 408Q577 492 538 541T420 591Q348 591 295 551T212 444T183 299Q183 210 222 160T339 109Q390 109 430 132Z" />
<glyph unicode="R" glyph-name="R" horiz-adv-x="613" d="M149 700H380Q484 700 542 657T600 521Q600 379 446 294L546 0H413L321 260H199L153 0H26L149 700ZM320 380Q382 380 422 414T463 509Q463 593 367 593H258L220 380H320Z" />
<glyph unicode="S" glyph-name="S" horiz-adv-x="566" d="M105 -14T5 37L45 183Q81 151 131 130T243 109Q372 109 372 194Q372 237 343 260T239 310Q182 330 147 352T94 409T75 496Q75 559 108 608T202 686T343 714Q411 714 469 698T563 660L527 529Q472 562 428
577T333 592Q277 592 243 572T208 510Q208 475 236 457T325 417Q387 396 426 376T492 319T519 221Q519 161 491 108T397 20T228 -14Q105 -14 5 37Z" />
<glyph unicode="T" glyph-name="T" horiz-adv-x="564" d="M268 576H79L101 700H607L585 576H396L295 0H167L268 576Z" />
<glyph unicode="U" glyph-name="U" horiz-adv-x="695" d="M179 -14T121 45T63 212Q63 256 71 300L142 700H269L206 343Q196 287 196 245Q197 179 224 144T315 109Q402 109 444 170T507 343L570 700H698L627 300Q601 153 517 70T294 -14Q179 -14 121 45Z" />
<glyph unicode="V" glyph-name="V" horiz-adv-x="638" d="M70 700H203L295 149L569 700H701L344 0H186L70 700Z" />
<glyph unicode="W" glyph-name="W" horiz-adv-x="934" d="M87 700H220L264 203L499 700H585L652 216L863 700H996L676 0H566L500 467L271 0H153L87 700Z" />
<glyph unicode="X" glyph-name="X" horiz-adv-x="616" d="M249 360L87 700H235L339 448L522 700H671L394 355L563 0H413L300 257L99 0H-49L249 360Z" />
<glyph unicode="Y" glyph-name="Y" horiz-adv-x="603" d="M237 310L73 700H209L323 420L531 700H667L365 310L310 0H183L237 310Z" />
<glyph unicode="Z" glyph-name="Z" horiz-adv-x="536" d="M363 576H106L128 700H596L194 124H451L429 0H-39L363 576Z" />
<glyph unicode="[" glyph-name="bracketleft" horiz-adv-x="326" d="M148 750H395L376 641H242L124 -27H258L239 -136H-8L148 750Z" />
<glyph unicode="\" glyph-name="backslash" horiz-adv-x="355" d="M70 700H195L305 -85H180L70 700Z" />
<glyph unicode="]" glyph-name="bracketright" horiz-adv-x="333" d="M-49 -27H69L187 641H69L88 750H319L163 -136H-68L-49 -27Z" />
<glyph unicode="^" glyph-name="asciicircum" horiz-adv-x="454" d="M43 576L249 759L418 547L395 415L226 610L20 444L43 576Z" />
<glyph unicode="_" glyph-name="underscore" horiz-adv-x="536" d="M-53 -36H484L468 -130H-70L-53 -36Z" />
<glyph unicode="`" glyph-name="grave" horiz-adv-x="389" d="M110 646L130 761L299 649L285 570L110 646Z" />
<glyph unicode="a" glyph-name="a" horiz-adv-x="584" d="M118 -10T68 48T18 198Q18 277 52 348T151 464T299 508Q337 508 364 497T415 465L429 500H537L479 158Q475 135 475 120Q475 100 484 96T524 92L496 -10Q444 -10 418 -6T377 10T350 48Q319 21 285 6T203
-10Q118 -10 68 48ZM319 92T349 154T380 292Q380 406 290 406Q249 406 216 380T165 310T147 214Q147 157 171 125T245 92Q319 92 349 154Z" />
<glyph unicode="b" glyph-name="b" horiz-adv-x="560" d="M182 -10T133 60L118 0H7L139 750H264L212 458Q239 482 273 495T344 508Q430 508 478 449T526 295Q526 216 496 146T409 33T275 -10Q182 -10 133 60ZM299 92T331 118T380 187T398 283Q398 340 376 373T308
406Q262 406 230 379T181 306T164 209Q164 152 186 122T258 92Q299 92 331 118Z" />
<glyph unicode="c" glyph-name="c" horiz-adv-x="437" d="M115 -10T67 48T18 201Q18 282 52 352T153 465T310 508Q391 508 440 471L411 365Q360 406 309 406Q260 406 224 381T167 311T147 214Q147 157 173 125T254 92Q308 92 370 133L362 27Q304 -10 216 -10Q115
-10 67 48Z" />
<glyph unicode="d" glyph-name="d" horiz-adv-x="561" d="M582 750L450 0H332L342 53Q274 -10 197 -10Q112 -10 65 46T18 192Q18 273 49 346T140 463T277 508Q360 508 404 447L458 750H582ZM287 92T318 122T365 198T380 292Q380 406 291 406Q249 406 216 380T165
308T147 209Q147 154 170 123T240 92Q287 92 318 122Z" />
<glyph unicode="e" glyph-name="e" horiz-adv-x="488" d="M130 -10T74 50T18 205Q18 282 53 352T153 465T300 508Q378 508 420 469T463 363Q463 278 396 239T224 199Q174 199 148 205Q151 147 184 120T263 92Q343 92 420 133L406 28Q335 -10 239 -10Q130 -10 74
50ZM288 280T323 302T359 357Q359 386 339 396T295 406Q243 406 207 367T158 284Q174 280 204 280Q288 280 323 302Z" />
<glyph unicode="f" glyph-name="f" horiz-adv-x="335" d="M105 398H39L68 500H123L144 619Q166 750 306 750Q335 750 393 744L364 641Q337 646 324 646Q300 646 289 640T271 618T259 568L247 500H350L332 398H229L159 0H35L105 398Z" />
<glyph unicode="g" glyph-name="g" horiz-adv-x="487" d="M56 -250T5 -212T-46 -119Q-46 -78 -20 -47T54 10Q23 34 23 71Q23 97 38 116T83 150Q60 171 48 205T35 278Q35 338 64 391T146 476T267 508Q333 508 371 478Q386 487 415 493T476 500H510L489 422H442Q429
422 420 421Q431 390 431 346Q431 285 403 232T321 146T199 114Q177 114 150 119Q139 113 139 100Q139 84 163 77T248 62Q320 52 368 26T417 -71Q417 -122 386 -162T297 -226T159 -250Q56 -250 5 -212ZM263 205T291 242T320 334Q320 417 250 417Q202 417 174 380T146
287Q146 205 215 205Q263 205 291 242ZM224 -162T264 -142T305 -90Q305 -59 270 -46T173 -26Q154 -25 136 -21Q58 -47 58 -97Q58 -128 86 -145T166 -162Q224 -162 264 -142Z" />
<glyph unicode="h" glyph-name="h" horiz-adv-x="538" d="M139 750H263L212 456Q245 483 278 495T348 508Q415 508 451 467T487 359Q487 319 478 265L433 0H309L351 246Q361 304 361 335Q361 368 344 387T296 406Q268 406 245 396T195 363L131 0H7L139 750Z" />
<glyph unicode="i" glyph-name="i" horiz-adv-x="242" d="M130 700H255L233 576H109L130 700ZM95 500H219L131 0H7L95 500Z" />
<glyph unicode="j" glyph-name="j" horiz-adv-x="243" d="M131 700H255L233 576H109L131 700ZM-73 -140Q-46 -140 -35 -136T-17 -116T-3 -60L96 500H220L112 -111Q101 -170 66 -206T-34 -242H-80L-73 -140Z" />
<glyph unicode="k" glyph-name="k" horiz-adv-x="480" d="M139 750H264L183 295L369 500H508L293 260L419 0H280L170 222L131 0H7L139 750Z" />
<glyph unicode="l" glyph-name="l" horiz-adv-x="264" d="M75 -10T50 17T24 89Q24 107 38 185L138 750H262L161 175Q154 136 154 123Q154 102 164 97T201 92L172 -10H127Q75 -10 50 17Z" />
<glyph unicode="m" glyph-name="m" horiz-adv-x="836" d="M95 500H197V461Q220 481 255 494T327 508Q369 508 404 489T457 432Q475 460 522 484T628 508Q706 508 745 463T785 341Q785 322 773 248T731 0H607Q637 172 648 241T660 324Q660 371 643 388T593 406Q543
406 518 378T485 309L431 0H308L328 115Q346 218 354 268T363 334Q363 406 286 406Q259 406 238 396T196 365L131 0H7L95 500Z" />
<glyph unicode="n" glyph-name="n" horiz-adv-x="536" d="M95 500H204L209 470Q238 488 267 498T334 508Q409 508 447 462T485 339Q485 321 476 262T431 0H306Q358 296 358 322Q358 366 341 386T287 406Q260 406 239 396T195 363L131 0H7L95 500Z" />
<glyph unicode="o" glyph-name="o" horiz-adv-x="549" d="M157 -10T111 18T41 95T17 205Q17 284 54 353T159 465T309 508Q376 508 422 480T492 403T516 293Q516 214 479 145T374 33T224 -10Q157 -10 111 18ZM283 92T316 118T369 188T388 284Q388 342 364 374T292
406Q250 406 217 380T164 311T145 215Q145 157 169 125T241 92Q283 92 316 118Z" />
<glyph unicode="p" glyph-name="p" horiz-adv-x="560" d="M95 500H204L205 456Q272 508 350 508Q433 508 479 451T526 297Q526 206 496 137T409 29T276 -10Q228 -10 194 8T140 56L88 -242H-36L95 500ZM325 92T361 146T398 285Q398 341 377 373T311 406Q244 406
204 348T163 204Q163 92 266 92Q325 92 361 146Z" />
<glyph unicode="q" glyph-name="q" horiz-adv-x="561" d="M331 37Q301 13 270 2T201 -10Q112 -10 65 49T18 203Q18 282 51 352T144 465T284 508Q330 508 360 493T414 443L441 500H538L407 -242H282L331 37ZM311 92T346 148T381 292Q381 406 292 406Q249 406 216
381T165 311T146 215Q146 157 170 125T245 92Q311 92 346 148Z" />
<glyph unicode="r" glyph-name="r" horiz-adv-x="340" d="M95 500H213L205 447Q227 470 264 489T339 508H374L330 391H283Q255 391 230 377T191 341L130 0H7L95 500Z" />
<glyph unicode="s" glyph-name="s" horiz-adv-x="416" d="M68 -10T-13 27L16 133Q97 83 162 83Q199 83 217 99T236 140Q236 167 219 181T160 209Q101 229 71 257T41 339Q41 413 96 460T250 508Q334 508 399 471L372 371Q305 419 236 419Q200 419 179 406T157 364Q157
344 168 332T194 313T254 290Q310 270 336 239T362 155Q362 109 338 72T267 12T153 -10Q68 -10 -13 27Z" />
<glyph unicode="t" glyph-name="t" horiz-adv-x="338" d="M108 -10T81 19T54 95Q54 111 105 398H39L68 500H123L143 610L269 623L247 500H350L332 398H230Q184 139 184 124Q184 103 196 98T244 92H279L249 -10H163Q108 -10 81 19Z" />
<glyph unicode="u" glyph-name="u" horiz-adv-x="541" d="M116 -10T76 35T35 161Q35 187 42 227L89 500H213L168 236Q161 198 161 178Q161 135 179 115T235 94Q289 94 329 136L394 500H518L430 0H313L318 37Q288 14 260 2T196 -10Q116 -10 76 35Z" />
<glyph unicode="v" glyph-name="v" horiz-adv-x="482" d="M37 500H158L212 154L390 500H510L236 0H134L37 500Z" />
<glyph unicode="w" glyph-name="w" horiz-adv-x="703" d="M48 500H166L186 151L335 490H436L464 151L608 500H726L498 0H398L357 326L200 0H100L48 500Z" />
<glyph unicode="x" glyph-name="x" horiz-adv-x="481" d="M158 250L49 500H198L250 339L356 500H505L305 250L416 0H267L213 148L110 0H-39L158 250Z" />
<glyph unicode="y" glyph-name="y" horiz-adv-x="523" d="M152 33L34 500H172L234 178L415 500H553L120 -242H-3L152 33Z" />
<glyph unicode="z" glyph-name="z" horiz-adv-x="461" d="M247 390H50L70 500H475L200 110H395L375 0H-28L247 390Z" />
<glyph unicode="{" glyph-name="braceleft" horiz-adv-x="344" d="M404 750L385 641H358Q311 641 285 623T251 560Q248 541 244 486Q243 457 239 424Q230 379 206 351T142 307Q195 280 195 220Q195 192 175 118Q158 54 158 33Q158 1 178 -13T240 -27H267L248 -136H211Q131
-136 93 -104T55 -13Q55 10 60 33T74 90Q84 125 89 151T94 203Q94 236 78 251T23 267L37 347Q84 347 107 372T141 454Q144 475 148 528Q149 557 153 590Q166 664 219 707T367 750H404Z" />
<glyph unicode="|" glyph-name="bar" horiz-adv-x="236" d="M140 750H264L94 -210H-30L140 750Z" />
<glyph unicode="}" glyph-name="braceright" horiz-adv-x="344" d="M250 378T266 363T321 347L307 267Q260 267 237 242T203 160Q200 139 196 86Q195 57 191 24Q178 -50 125 -93T-23 -136H-60L-41 -27H-14Q33 -27 59 -9T93 54Q96 73 100 128Q101 157 105 190Q114
235 138 263T202 307Q149 334 149 394Q149 422 169 496Q186 560 186 581Q186 613 166 627T104 641H77L96 750H133Q213 750 251 718T289 627Q289 604 284 581T270 524Q260 489 255 463T250 411Q250 378 266 363Z" />
<glyph unicode="~" glyph-name="asciitilde" horiz-adv-x="447" d="M287 289T271 295T229 314Q208 325 193 331T163 337Q144 337 132 326T115 296H30Q42 360 76 394T160 429Q181 429 199 422T242 402Q262 392 276 387T303 381Q336 381 342 424H427Q406 289 306
289Q287 289 271 295Z" />
<glyph unicode="&#xa0;" glyph-name="uni00A0" horiz-adv-x="216" />
<glyph unicode="&#xa1;" glyph-name="exclamdown" horiz-adv-x="211" d="M187 364H57L81 500H211L187 364ZM155 264L84 -200H-40L53 264L58 293H160L155 264Z" />
<glyph unicode="&#xa2;" glyph-name="cent" horiz-adv-x="460" d="M260 406T224 381T167 311T147 214Q147 157 173 125T254 92Q308 92 370 133L362 27Q314 -3 246 -9L230 -144H132L164 -5Q90 9 54 64T18 201Q18 273 45 337T126 446T254 503L270 639H368L337 507Q399
502 440 471L411 365Q360 406 309 406Q260 406 224 381Z" />
<glyph unicode="&#xa3;" glyph-name="sterling" horiz-adv-x="545" d="M352 592T324 566T280 486L256 400H425L409 312H231Q213 249 196 205T157 120H437L416 0H-20Q21 80 48 148T103 312H27L43 400H128L157 500Q188 609 249 661T412 714Q477 714 531 687L498
556Q471 574 447 583T397 592Q352 592 324 566Z" />
<glyph unicode="&#xa4;" glyph-name="currency" horiz-adv-x="648" d="M576 461T576 398Q576 336 554 281T491 184L576 80L513 28L427 133Q355 89 268 89Q183 89 127 131L9 30L-40 88L77 188Q51 235 51 298Q51 359 73 414T137 512L52 616L115 668L201 563Q273
607 360 607Q443 607 499 565L619 666L668 608L549 507Q576 461 576 398ZM180 262T208 232T288 201Q335 201 371 225T428 291T448 382Q448 434 420 464T340 495Q293 495 257 471T200 405T180 314Q180 262 208 232Z" />
<glyph unicode="&#xa5;" glyph-name="yen" horiz-adv-x="614" d="M355 352H466L451 264H314L305 212H441L426 124H289L267 0H140L162 124H26L41 212H177L186 264H51L66 352H176L30 700H166L280 420L488 700H624L355 352Z" />
<glyph unicode="&#xa6;" glyph-name="brokenbar" horiz-adv-x="236" d="M140 750H264L192 342H68L140 750ZM42 198H166L94 -210H-30L42 198Z" />
<glyph unicode="&#xa7;" glyph-name="section" horiz-adv-x="464" d="M266 654T242 639T217 594Q217 567 237 550T300 509Q340 487 365 469T408 420T426 346Q426 295 395 260T301 190Q339 150 339 95Q339 44 313 3T241 -62T135 -85Q68 -85 0 -44L27 61Q54 40 91
26T159 11Q198 11 223 28T249 72Q249 103 226 125T155 175Q117 198 94 215T55 259T38 319Q38 414 167 477Q126 515 126 572Q126 623 153 663T229 727T335 750Q409 750 464 709L437 604Q368 654 301 654Q266 654 242 639ZM327 353T315 373T285 405T235 434L216 444Q180
426 160 399T139 343Q139 311 160 291T226 244L251 229Q285 246 306 271T327 325Q327 353 315 373Z" />
<glyph unicode="&#xa8;" glyph-name="dieresis" horiz-adv-x="400" d="M88 681H182L164 591H70L88 681ZM286 681H380L362 591H268L286 681Z" />
<glyph unicode="&#xa9;" glyph-name="copyright" horiz-adv-x="695" d="M228 37T172 70T86 164T55 305Q55 416 104 504T236 643T418 693Q492 693 548 660T634 567T665 426Q665 315 616 226T484 87T302 37Q228 37 172 70ZM400 106T461 149T554 263T586 421Q586
513 541 568T406 623Q321 623 259 581T165 467T133 309Q133 217 179 162T315 106Q400 106 461 149ZM277 190T242 228T206 331Q206 390 231 437T301 510T398 537Q423 537 448 531T494 514L469 429Q445 440 425 446T383 452Q345 452 322 421T298 342Q298 310 312
292T352 274Q391 274 446 299L441 215Q419 203 391 197T337 190Q277 190 242 228Z" />
<glyph unicode="&#xaa;" glyph-name="ordfeminine" horiz-adv-x="316" d="M94 434T72 453T50 507Q50 560 101 590T230 629V632Q230 639 222 643T193 647Q150 647 102 632L111 713Q182 732 233 732Q282 732 309 710T336 648Q336 639 334 629L319 545L317 531Q317
524 320 522T333 519H336L317 434H282Q226 434 217 466Q202 452 178 443T132 434Q94 434 72 453ZM219 563Q162 555 162 523Q162 505 182 505Q196 505 211 514L219 563Z" />
<glyph unicode="&#xab;" glyph-name="guillemotleft" horiz-adv-x="594" d="M11 284L194 490H342L159 284L270 78H121L11 284ZM261 284L444 490H592L409 284L519 78H371L261 284Z" />
<glyph unicode="&#xac;" glyph-name="logicalnot" horiz-adv-x="506" d="M352 312H30L46 406H470L426 151H324L352 312Z" />
<glyph unicode="&#xad;" glyph-name="uni00AD" horiz-adv-x="429" d="M72 358H369L352 264H54L72 358Z" />
<glyph unicode="&#xae;" glyph-name="registered" horiz-adv-x="695" d="M228 37T172 70T86 164T55 305Q55 416 104 504T236 643T418 693Q492 693 548 660T634 567T665 426Q665 315 616 226T484 87T302 37Q228 37 172 70ZM400 107T461 150T553 264T585 422Q585
513 540 567T406 622Q321 622 260 580T166 466T134 309Q134 218 180 163T315 107Q400 107 461 150ZM268 538H392Q491 538 491 453Q491 415 472 386T428 341L476 203H382L342 315H317L298 203H209L268 538ZM352 396Q378 396 388 407T399 440Q399 452 392 457T366
463H344L332 396H352Z" />
<glyph unicode="&#xaf;" glyph-name="overscore" horiz-adv-x="456" d="M96 672H416L400 591H80L96 672Z" />
<glyph unicode="&#xb0;" glyph-name="degree" horiz-adv-x="295" d="M96 482T68 512T40 590Q40 635 60 673T117 733T196 755Q248 755 276 725T305 646Q305 601 285 564T228 504T148 482Q96 482 68 512ZM195 543T215 571T236 637Q236 664 223 679T185 694Q151 694
130 666T108 600Q108 574 121 559T159 543Q195 543 215 571Z" />
<glyph unicode="&#xb1;" glyph-name="plusminus" horiz-adv-x="445" d="M157 315H25L41 405H173L196 535H294L271 405H403L387 315H255L232 185H134L157 315ZM-6 137H356L340 47H-22L-6 137Z" />
<glyph unicode="&#xb2;" glyph-name="uni00B2" horiz-adv-x="319" d="M194 473H298L283 386H13L152 544Q183 579 196 602T209 647Q209 665 198 675T166 685Q142 685 118 674T67 642L76 734Q143 772 207 772Q258 772 287 747T316 678Q316 639 295 602T229 513L194 473Z" />
<glyph unicode="&#xb3;" glyph-name="uni00B3" horiz-adv-x="324" d="M302 562T302 510Q302 471 281 441T223 393T145 376Q72 376 18 412L52 498Q74 481 94 472T141 463Q169 463 185 474T201 506Q201 523 188 533T148 543H117L131 620H163Q187 620 201 630T215
658Q215 689 177 689Q135 689 84 657L93 748Q152 776 217 776Q267 776 294 752T322 688Q322 653 304 627T253 585Q302 562 302 510Z" />
<glyph unicode="&#xb4;" glyph-name="acute" horiz-adv-x="419" d="M127 653L329 761L310 636L110 570L127 653Z" />
<glyph unicode="&#xb5;" glyph-name="uni00B5" horiz-adv-x="581" d="M110 500H234L183 211Q179 183 179 172Q179 134 199 114T258 94Q312 94 351 136L415 500H539L482 172Q475 134 475 120Q475 92 503 92H524L495 -10H453Q414 -10 390 6T356 52Q329 25 294 8T221
-10Q181 -10 148 9L104 -242H-20L110 500Z" />
<glyph unicode="&#xb6;" glyph-name="paragraph" horiz-adv-x="607" d="M268 229Q200 233 154 262T84 337T61 433Q61 499 99 561T210 661T381 700H631L612 593H547L442 0H351L456 593H403L298 0H227L268 229Z" />
<glyph unicode="&#xb7;" glyph-name="middot" horiz-adv-x="230" d="M64 343H183L160 213H41L64 343Z" />
<glyph unicode="&#xb8;" glyph-name="cedilla" horiz-adv-x="311" d="M240 -54T260 -73T281 -126Q281 -176 244 -207T149 -239Q104 -239 70 -220L100 -161Q132 -178 162 -178Q187 -178 201 -168T216 -140Q216 -110 170 -110Q147 -110 120 -117L169 0H224L198 -54H204Q240
-54 260 -73Z" />
<glyph unicode="&#xb9;" glyph-name="uni00B9" horiz-adv-x="215" d="M102 651Q65 626 31 618L40 698Q67 706 95 723T141 758H216L150 386H55L102 651Z" />
<glyph unicode="&#xba;" glyph-name="ordmasculine" horiz-adv-x="343" d="M129 434T95 469T60 555Q60 603 83 643T149 708T242 732Q304 732 338 698T373 610Q373 562 348 522T281 458T190 434Q129 434 95 469ZM234 511T250 539T267 606Q267 655 229 655Q198 655
182 627T165 561Q165 537 174 524T203 511Q234 511 250 539Z" />
<glyph unicode="&#xbb;" glyph-name="guillemotright" horiz-adv-x="595" d="M182 284L72 490H220L330 284L147 78H-1L182 284ZM432 284L321 490H470L580 284L397 78H249L432 284Z" />
<glyph unicode="&#xbc;" glyph-name="onequarter" horiz-adv-x="656" d="M345 593Q308 568 274 560L283 640Q310 648 338 665T384 700H459L393 328H298L345 593ZM517 700H616L80 0H-20L517 700ZM628 152L615 80H566L552 0H467L481 80H277L537 372H618L579 152H628ZM494
152L513 251L426 152H494Z" />
<glyph unicode="&#xbd;" glyph-name="onehalf" horiz-adv-x="703" d="M517 700H616L80 0H-20L517 700ZM531 87H635L620 0H350L489 158Q520 193 533 216T546 261Q546 279 535 289T503 299Q479 299 455 288T404 256L413 348Q480 386 544 386Q595 386 624 361T653
292Q653 253 632 216T566 127L531 87ZM348 593Q311 568 277 560L286 640Q313 648 341 665T387 700H462L396 328H301L348 593Z" />
<glyph unicode="&#xbe;" glyph-name="threequarters" horiz-adv-x="759" d="M620 700H719L183 0H83L620 700ZM310 500T310 448Q310 409 289 379T231 331T153 314Q80 314 26 350L60 436Q82 419 102 410T149 401Q177 401 193 412T209 444Q209 461 196 471T156 481H125L139
558H171Q195 558 209 568T223 596Q223 627 185 627Q143 627 92 595L101 686Q160 714 225 714Q275 714 302 690T330 626Q330 591 312 565T261 523Q310 500 310 448ZM731 152L718 80H669L655 0H570L584 80H380L640 372H721L682 152H731ZM597 152L616 251L529 152H597Z"
/>
<glyph unicode="&#xbf;" glyph-name="questiondown" horiz-adv-x="471" d="M377 364H247L271 500H401L377 364ZM363 283Q354 230 326 194T251 117Q210 82 192 64T160 23T146 -30Q146 -59 166 -75T223 -91Q261 -91 296 -82T373 -53L367 -171Q319 -192 274 -203T171
-214Q90 -214 45 -175T0 -70Q0 -10 33 38T129 139Q174 177 199 207T231 277L233 293H364L363 283Z" />
<glyph unicode="&#xc0;" glyph-name="Agrave" horiz-adv-x="607" d="M319 700H439L554 0H421L394 169H176L90 0H-43L319 700ZM372 293L343 498L242 293H372ZM303 846L323 961L492 849L478 770L303 846Z" />
<glyph unicode="&#xc1;" glyph-name="Aacute" horiz-adv-x="607" d="M319 700H439L554 0H421L394 169H176L90 0H-43L319 700ZM372 293L343 498L242 293H372ZM312 853L514 961L495 836L295 770L312 853Z" />
<glyph unicode="&#xc2;" glyph-name="Acircumflex" horiz-adv-x="607" d="M319 700H439L554 0H421L394 169H176L90 0H-43L319 700ZM372 293L343 498L242 293H372ZM288 847L420 945L530 833L514 754L399 837L271 766L288 847Z" />
<glyph unicode="&#xc3;" glyph-name="Atilde" horiz-adv-x="607" d="M319 700H439L554 0H421L394 169H176L90 0H-43L319 700ZM372 293L343 498L242 293H372ZM463 778T448 783T405 801Q388 809 371 815T342 821Q325 821 314 812T300 786H222Q230 845 257 876T326
907Q343 907 360 901T400 883Q440 864 458 864Q490 864 496 902H578Q568 839 544 809T478 778Q463 778 448 783Z" />
<glyph unicode="&#xc4;" glyph-name="Adieresis" horiz-adv-x="607" d="M319 700H439L554 0H421L394 169H176L90 0H-43L319 700ZM372 293L343 498L242 293H372ZM261 881H355L337 791H243L261 881ZM459 881H553L535 791H441L459 881Z" />
<glyph unicode="&#xc5;" glyph-name="Aring" horiz-adv-x="607" d="M319 700H439L554 0H421L394 169H176L90 0H-43L319 700ZM372 293L343 498L242 293H372ZM346 770T324 792T301 848Q301 879 318 906T363 949T424 965Q464 965 486 943T509 887Q509 838 473 804T386
770Q346 770 324 792ZM418 822T433 838T448 877Q448 893 439 902T414 912Q393 912 378 896T362 857Q362 841 371 832T396 822Q418 822 433 838Z" />
<glyph unicode="&#xc6;" glyph-name="AE" horiz-adv-x="843" d="M395 700H871L849 576H567L541 427H758L736 303H519L487 124H778L756 0H337L367 169H184L78 0H-56L395 700ZM389 293L438 573L265 293H389Z" />
<glyph unicode="&#xc7;" glyph-name="Ccedilla" horiz-adv-x="593" d="M351 591T296 552T212 446T183 299Q183 109 346 109Q420 109 522 149L515 27Q480 11 437 1T351 -13L331 -54H337Q373 -54 393 -73T414 -126Q414 -176 377 -207T282 -239Q237 -239 203 -220L233
-161Q265 -178 295 -178Q320 -178 334 -168T349 -140Q349 -110 303 -110Q280 -110 253 -117L296 -13Q178 -5 110 74T42 287Q42 408 96 505T243 658T447 714Q496 714 545 703T629 673L593 551Q504 591 430 591Q351 591 296 552Z" />
<glyph unicode="&#xc8;" glyph-name="Egrave" horiz-adv-x="555" d="M149 700H583L561 576H259L233 427H466L444 303H211L179 124H491L469 0H26L149 700ZM298 846L318 961L487 849L473 770L298 846Z" />
<glyph unicode="&#xc9;" glyph-name="Eacute" horiz-adv-x="555" d="M149 700H583L561 576H259L233 427H466L444 303H211L179 124H491L469 0H26L149 700ZM307 853L509 961L490 836L290 770L307 853Z" />
<glyph unicode="&#xca;" glyph-name="Ecircumflex" horiz-adv-x="555" d="M149 700H583L561 576H259L233 427H466L444 303H211L179 124H491L469 0H26L149 700ZM283 847L415 945L525 833L509 754L394 837L266 766L283 847Z" />
<glyph unicode="&#xcb;" glyph-name="Edieresis" horiz-adv-x="555" d="M149 700H583L561 576H259L233 427H466L444 303H211L179 124H491L469 0H26L149 700ZM256 881H350L332 791H238L256 881ZM454 881H548L530 791H436L454 881Z" />
<glyph unicode="&#xcc;" glyph-name="Igrave" horiz-adv-x="283" d="M149 700H277L154 0H26L149 700ZM146 846L166 961L335 849L321 770L146 846Z" />
<glyph unicode="&#xcd;" glyph-name="Iacute" horiz-adv-x="283" d="M149 700H277L154 0H26L149 700ZM155 853L357 961L338 836L138 770L155 853Z" />
<glyph unicode="&#xce;" glyph-name="Icircumflex" horiz-adv-x="283" d="M149 700H277L154 0H26L149 700ZM131 847L263 945L373 833L357 754L242 837L114 766L131 847Z" />
<glyph unicode="&#xcf;" glyph-name="Idieresis" horiz-adv-x="283" d="M149 700H277L154 0H26L149 700ZM104 881H198L180 791H86L104 881ZM302 881H396L378 791H284L302 881Z" />
<glyph unicode="&#xd0;" glyph-name="Eth" horiz-adv-x="716" d="M498 700T561 666T658 568T692 416Q692 292 639 198T494 52T291 0H39L93 309H28L45 403H110L162 700H415Q498 700 561 666ZM389 123T442 159T522 258T550 404Q550 486 511 531T393 577H269L238
403H366L350 309H222L189 123H313Q389 123 442 159Z" />
<glyph unicode="&#xd1;" glyph-name="Ntilde" horiz-adv-x="688" d="M149 700H274L474 248L554 700H682L558 0H454L239 480L154 0H26L149 700ZM491 777T475 782T436 797Q421 804 406 809T379 815Q352 815 346 784H270Q290 889 370 889Q394 889 438 869Q453 862
468 857T495 851Q522 851 528 884H604Q596 831 571 804T506 777Q491 777 475 782Z" />
<glyph unicode="&#xd2;" glyph-name="Ograve" horiz-adv-x="742" d="M236 -14T173 22T76 126T42 287Q42 407 96 504T242 658T441 714Q526 714 589 678T686 574T720 413Q720 293 666 196T520 42T321 -14Q236 -14 173 22ZM413 109T467 149T549 257T578 402Q578 492
539 541T420 591Q348 591 294 551T212 443T183 298Q183 208 222 159T341 109Q413 109 467 149ZM378 846L398 961L567 849L553 770L378 846Z" />
<glyph unicode="&#xd3;" glyph-name="Oacute" horiz-adv-x="742" d="M236 -14T173 22T76 126T42 287Q42 407 96 504T242 658T441 714Q526 714 589 678T686 574T720 413Q720 293 666 196T520 42T321 -14Q236 -14 173 22ZM413 109T467 149T549 257T578 402Q578 492
539 541T420 591Q348 591 294 551T212 443T183 298Q183 208 222 159T341 109Q413 109 467 149ZM387 853L589 961L570 836L370 770L387 853Z" />
<glyph unicode="&#xd4;" glyph-name="Ocircumflex" horiz-adv-x="742" d="M236 -14T173 22T76 126T42 287Q42 407 96 504T242 658T441 714Q526 714 589 678T686 574T720 413Q720 293 666 196T520 42T321 -14Q236 -14 173 22ZM413 109T467 149T549 257T578 402Q578
492 539 541T420 591Q348 591 294 551T212 443T183 298Q183 208 222 159T341 109Q413 109 467 149ZM363 847L495 945L605 833L589 754L474 837L346 766L363 847Z" />
<glyph unicode="&#xd5;" glyph-name="Otilde" horiz-adv-x="742" d="M236 -14T173 22T76 126T42 287Q42 407 96 504T242 658T441 714Q526 714 589 678T686 574T720 413Q720 293 666 196T520 42T321 -14Q236 -14 173 22ZM413 109T467 149T549 257T578 402Q578 492
539 541T420 591Q348 591 294 551T212 443T183 298Q183 208 222 159T341 109Q413 109 467 149ZM538 778T523 783T480 801Q463 809 446 815T417 821Q400 821 389 812T375 786H297Q305 845 332 876T401 907Q418 907 435 901T475 883Q515 864 533 864Q565 864 571
902H653Q643 839 619 809T553 778Q538 778 523 783Z" />
<glyph unicode="&#xd6;" glyph-name="Odieresis" horiz-adv-x="742" d="M236 -14T173 22T76 126T42 287Q42 407 96 504T242 658T441 714Q526 714 589 678T686 574T720 413Q720 293 666 196T520 42T321 -14Q236 -14 173 22ZM413 109T467 149T549 257T578 402Q578
492 539 541T420 591Q348 591 294 551T212 443T183 298Q183 208 222 159T341 109Q413 109 467 149ZM336 881H430L412 791H318L336 881ZM534 881H628L610 791H516L534 881Z" />
<glyph unicode="&#xd7;" glyph-name="multiply" horiz-adv-x="465" d="M276 272L372 156L299 95L204 211L65 93L6 164L145 282L50 398L123 459L218 344L356 461L415 390L276 272Z" />
<glyph unicode="&#xd8;" glyph-name="Oslash" horiz-adv-x="742" d="M646 633Q682 593 701 538T720 413Q720 293 666 196T520 42T321 -14Q237 -14 175 21L125 -44H24L113 71Q42 151 42 287Q42 407 96 504T242 658T441 714Q522 714 581 682L629 744H731L646 633ZM183
235T203 190L498 574Q466 591 420 591Q348 591 294 551T212 443T183 298Q183 235 203 190ZM578 472T555 515L258 129Q292 109 341 109Q413 109 467 149T549 257T578 402Q578 472 555 515Z" />
<glyph unicode="&#xd9;" glyph-name="Ugrave" horiz-adv-x="695" d="M179 -14T121 45T63 212Q63 256 71 300L142 700H269L206 343Q196 287 196 245Q197 179 224 144T315 109Q402 109 444 170T507 343L570 700H698L627 300Q601 153 517 70T294 -14Q179 -14 121
45ZM349 846L369 961L538 849L524 770L349 846Z" />
<glyph unicode="&#xda;" glyph-name="Uacute" horiz-adv-x="695" d="M179 -14T121 45T63 212Q63 256 71 300L142 700H269L206 343Q196 287 196 245Q197 179 224 144T315 109Q402 109 444 170T507 343L570 700H698L627 300Q601 153 517 70T294 -14Q179 -14 121
45ZM358 853L560 961L541 836L341 770L358 853Z" />
<glyph unicode="&#xdb;" glyph-name="Ucircumflex" horiz-adv-x="695" d="M179 -14T121 45T63 212Q63 256 71 300L142 700H269L206 343Q196 287 196 245Q197 179 224 144T315 109Q402 109 444 170T507 343L570 700H698L627 300Q601 153 517 70T294 -14Q179 -14
121 45ZM334 847L466 945L576 833L560 754L445 837L317 766L334 847Z" />
<glyph unicode="&#xdc;" glyph-name="Udieresis" horiz-adv-x="695" d="M179 -14T121 45T63 212Q63 256 71 300L142 700H269L206 343Q196 287 196 245Q197 179 224 144T315 109Q402 109 444 170T507 343L570 700H698L627 300Q601 153 517 70T294 -14Q179 -14 121
45ZM307 881H401L383 791H289L307 881ZM505 881H599L581 791H487L505 881Z" />
<glyph unicode="&#xdd;" glyph-name="Yacute" horiz-adv-x="603" d="M237 310L73 700H209L323 420L531 700H667L365 310L310 0H183L237 310ZM310 853L512 961L493 836L293 770L310 853Z" />
<glyph unicode="&#xde;" glyph-name="Thorn" horiz-adv-x="537" d="M140 700H267L241 555H353Q448 555 497 514T547 395Q547 287 476 226T284 165H172L143 0H16L140 700ZM287 272Q414 272 414 376Q414 413 391 430T318 448H222L191 272H287Z" />
<glyph unicode="&#xdf;" glyph-name="germandbls" horiz-adv-x="631" d="M272 -14T222 -5L240 97Q288 88 338 88Q389 88 422 112T456 182Q456 213 438 233T384 278Q349 302 331 322T312 373Q312 405 334 434T400 502Q441 537 457 557T473 605Q473 632 452 647T391
662Q334 662 299 628T253 532L159 0H34L104 398H38L67 500H122L127 530Q147 645 223 704T411 764Q499 764 550 729T601 631Q601 586 581 555T517 485L499 469Q471 446 457 429T443 393Q443 374 456 359T498 324Q539 294 561 265T584 189Q584 127 547 81T449 11T319
-14Q272 -14 222 -5Z" />
<glyph unicode="&#xe0;" glyph-name="agrave" horiz-adv-x="584" d="M118 -10T68 48T18 198Q18 277 52 348T151 464T299 508Q337 508 364 497T415 465L429 500H537L479 158Q475 135 475 120Q475 100 484 96T524 92L496 -10Q444 -10 418 -6T377 10T350 48Q319 21
285 6T203 -10Q118 -10 68 48ZM319 92T349 154T380 292Q380 406 290 406Q249 406 216 380T165 310T147 214Q147 157 171 125T245 92Q319 92 349 154ZM264 646L284 761L453 649L439 570L264 646Z" />
<glyph unicode="&#xe1;" glyph-name="aacute" horiz-adv-x="584" d="M118 -10T68 48T18 198Q18 277 52 348T151 464T299 508Q337 508 364 497T415 465L429 500H537L479 158Q475 135 475 120Q475 100 484 96T524 92L496 -10Q444 -10 418 -6T377 10T350 48Q319 21
285 6T203 -10Q118 -10 68 48ZM319 92T349 154T380 292Q380 406 290 406Q249 406 216 380T165 310T147 214Q147 157 171 125T245 92Q319 92 349 154ZM273 653L475 761L456 636L256 570L273 653Z" />
<glyph unicode="&#xe2;" glyph-name="acircumflex" horiz-adv-x="584" d="M118 -10T68 48T18 198Q18 277 52 348T151 464T299 508Q337 508 364 497T415 465L429 500H537L479 158Q475 135 475 120Q475 100 484 96T524 92L496 -10Q444 -10 418 -6T377 10T350 48Q319
21 285 6T203 -10Q118 -10 68 48ZM319 92T349 154T380 292Q380 406 290 406Q249 406 216 380T165 310T147 214Q147 157 171 125T245 92Q319 92 349 154ZM249 647L381 745L491 633L475 554L360 637L232 566L249 647Z" />
<glyph unicode="&#xe3;" glyph-name="atilde" horiz-adv-x="584" d="M118 -10T68 48T18 198Q18 277 52 348T151 464T299 508Q337 508 364 497T415 465L429 500H537L479 158Q475 135 475 120Q475 100 484 96T524 92L496 -10Q444 -10 418 -6T377 10T350 48Q319 21
285 6T203 -10Q118 -10 68 48ZM319 92T349 154T380 292Q380 406 290 406Q249 406 216 380T165 310T147 214Q147 157 171 125T245 92Q319 92 349 154ZM424 578T409 583T366 601Q349 609 332 615T303 621Q286 621 275 612T261 586H183Q191 645 218 676T287 707Q304
707 321 701T361 683Q401 664 419 664Q451 664 457 702H539Q529 639 505 609T439 578Q424 578 409 583Z" />
<glyph unicode="&#xe4;" glyph-name="adieresis" horiz-adv-x="584" d="M118 -10T68 48T18 198Q18 277 52 348T151 464T299 508Q337 508 364 497T415 465L429 500H537L479 158Q475 135 475 120Q475 100 484 96T524 92L496 -10Q444 -10 418 -6T377 10T350 48Q319
21 285 6T203 -10Q118 -10 68 48ZM319 92T349 154T380 292Q380 406 290 406Q249 406 216 380T165 310T147 214Q147 157 171 125T245 92Q319 92 349 154ZM222 681H316L298 591H204L222 681ZM420 681H514L496 591H402L420 681Z" />
<glyph unicode="&#xe5;" glyph-name="aring" horiz-adv-x="584" d="M118 -10T68 48T18 198Q18 277 52 348T151 464T299 508Q337 508 364 497T415 465L429 500H537L479 158Q475 135 475 120Q475 100 484 96T524 92L496 -10Q444 -10 418 -6T377 10T350 48Q319 21
285 6T203 -10Q118 -10 68 48ZM319 92T349 154T380 292Q380 406 290 406Q249 406 216 380T165 310T147 214Q147 157 171 125T245 92Q319 92 349 154ZM307 570T285 592T262 648Q262 679 279 706T324 749T385 765Q425 765 447 743T470 687Q470 638 434 604T347 570Q307
570 285 592ZM379 622T394 638T409 677Q409 693 400 702T375 712Q354 712 339 696T323 657Q323 641 332 632T357 622Q379 622 394 638Z" />
<glyph unicode="&#xe6;" glyph-name="ae" horiz-adv-x="768" d="M62 -15T27 16T-9 102Q-9 217 86 262T295 314Q295 348 291 365T272 392T227 401Q195 401 163 392T86 363L93 464Q189 508 278 508Q339 508 368 489T406 419Q423 453 474 480T586 508Q658 508 701
461T744 335Q744 308 739 284T719 223H417Q417 205 420 188Q428 140 457 116T528 92Q562 92 608 104T686 133L672 28Q640 11 597 1T505 -10Q434 -10 390 15T330 84Q284 36 237 11T128 -15Q62 -15 27 16ZM631 307Q633 316 633 333Q633 365 617 385T564 406Q521 406
485 379T434 307H631ZM192 81T215 95T257 136T283 202Q286 218 287 230Q251 229 214 219T151 185T125 128Q125 107 138 94T171 81Q192 81 215 95Z" />
<glyph unicode="&#xe7;" glyph-name="ccedilla" horiz-adv-x="437" d="M260 406T224 381T167 311T147 214Q147 157 173 125T254 92Q308 92 370 133L362 27Q314 -3 245 -9L223 -54H229Q265 -54 285 -73T306 -126Q306 -176 269 -207T174 -239Q129 -239 95 -220L125
-161Q157 -178 187 -178Q212 -178 226 -168T241 -140Q241 -110 195 -110Q172 -110 145 -117L190 -9Q102 -1 60 56T18 201Q18 282 52 352T153 465T310 508Q391 508 440 471L411 365Q360 406 309 406Q260 406 224 381Z" />
<glyph unicode="&#xe8;" glyph-name="egrave" horiz-adv-x="488" d="M130 -10T74 50T18 205Q18 282 53 352T153 465T300 508Q378 508 420 469T463 363Q463 278 396 239T224 199Q174 199 148 205Q151 147 184 120T263 92Q343 92 420 133L406 28Q335 -10 239 -10Q130
-10 74 50ZM288 280T323 302T359 357Q359 386 339 396T295 406Q243 406 207 367T158 284Q174 280 204 280Q288 280 323 302ZM239 646L259 761L428 649L414 570L239 646Z" />
<glyph unicode="&#xe9;" glyph-name="eacute" horiz-adv-x="488" d="M130 -10T74 50T18 205Q18 282 53 352T153 465T300 508Q378 508 420 469T463 363Q463 278 396 239T224 199Q174 199 148 205Q151 147 184 120T263 92Q343 92 420 133L406 28Q335 -10 239 -10Q130
-10 74 50ZM288 280T323 302T359 357Q359 386 339 396T295 406Q243 406 207 367T158 284Q174 280 204 280Q288 280 323 302ZM248 653L450 761L431 636L231 570L248 653Z" />
<glyph unicode="&#xea;" glyph-name="ecircumflex" horiz-adv-x="488" d="M130 -10T74 50T18 205Q18 282 53 352T153 465T300 508Q378 508 420 469T463 363Q463 278 396 239T224 199Q174 199 148 205Q151 147 184 120T263 92Q343 92 420 133L406 28Q335 -10 239
-10Q130 -10 74 50ZM288 280T323 302T359 357Q359 386 339 396T295 406Q243 406 207 367T158 284Q174 280 204 280Q288 280 323 302ZM224 647L356 745L466 633L450 554L335 637L207 566L224 647Z" />
<glyph unicode="&#xeb;" glyph-name="edieresis" horiz-adv-x="488" d="M130 -10T74 50T18 205Q18 282 53 352T153 465T300 508Q378 508 420 469T463 363Q463 278 396 239T224 199Q174 199 148 205Q151 147 184 120T263 92Q343 92 420 133L406 28Q335 -10 239
-10Q130 -10 74 50ZM288 280T323 302T359 357Q359 386 339 396T295 406Q243 406 207 367T158 284Q174 280 204 280Q288 280 323 302ZM197 681H291L273 591H179L197 681ZM395 681H489L471 591H377L395 681Z" />
<glyph unicode="&#xec;" glyph-name="igrave" horiz-adv-x="242" d="M95 500H219L131 0H7L95 500ZM88 646L108 761L277 649L263 570L88 646Z" />
<glyph unicode="&#xed;" glyph-name="iacute" horiz-adv-x="242" d="M95 500H219L131 0H7L95 500ZM97 653L299 761L280 636L80 570L97 653Z" />
<glyph unicode="&#xee;" glyph-name="icircumflex" horiz-adv-x="242" d="M95 500H219L131 0H7L95 500ZM73 647L205 745L315 633L299 554L184 637L56 566L73 647Z" />
<glyph unicode="&#xef;" glyph-name="idieresis" horiz-adv-x="242" d="M95 500H219L131 0H7L95 500ZM302 681H396L378 591H284L302 681ZM500 681H594L576 591H482L500 681Z" />
<glyph unicode="&#xf0;" glyph-name="eth" horiz-adv-x="500" d="M383 568Q462 463 462 322Q462 225 431 149T340 30T198 -13Q140 -13 96 11T27 77T2 175Q2 241 30 298T112 391T234 426Q278 426 309 409T359 363Q359 456 305 535L185 483L153 550L254 593Q222
624 178 644L216 701Q281 671 330 626L431 669L462 602L383 568ZM241 88T268 102T313 148T331 224Q331 274 309 301T244 329Q207 329 179 309T136 256T121 187Q121 142 145 115T213 88Q241 88 268 102Z" />
<glyph unicode="&#xf1;" glyph-name="ntilde" horiz-adv-x="536" d="M95 500H204L209 470Q238 488 267 498T334 508Q409 508 447 462T485 339Q485 321 476 262T431 0H306Q358 296 358 322Q358 366 341 386T287 406Q260 406 239 396T195 363L131 0H7L95 500ZM402
568T387 573T344 591Q327 599 310 605T281 611Q264 611 253 602T239 576H161Q169 635 196 666T265 697Q282 697 299 691T339 673Q379 654 397 654Q429 654 435 692H517Q507 629 483 599T417 568Q402 568 387 573Z" />
<glyph unicode="&#xf2;" glyph-name="ograve" horiz-adv-x="549" d="M157 -10T111 18T41 95T17 205Q17 284 54 353T159 465T309 508Q376 508 422 480T492 403T516 293Q516 214 479 145T374 33T224 -10Q157 -10 111 18ZM283 92T316 118T369 188T388 284Q388 342
364 374T292 406Q250 406 217 380T164 311T145 215Q145 157 169 125T241 92Q283 92 316 118ZM249 646L269 761L438 649L424 570L249 646Z" />
<glyph unicode="&#xf3;" glyph-name="oacute" horiz-adv-x="549" d="M157 -10T111 18T41 95T17 205Q17 284 54 353T159 465T309 508Q376 508 422 480T492 403T516 293Q516 214 479 145T374 33T224 -10Q157 -10 111 18ZM283 92T316 118T369 188T388 284Q388 342
364 374T292 406Q250 406 217 380T164 311T145 215Q145 157 169 125T241 92Q283 92 316 118ZM258 653L460 761L441 636L241 570L258 653Z" />
<glyph unicode="&#xf4;" glyph-name="ocircumflex" horiz-adv-x="549" d="M157 -10T111 18T41 95T17 205Q17 284 54 353T159 465T309 508Q376 508 422 480T492 403T516 293Q516 214 479 145T374 33T224 -10Q157 -10 111 18ZM283 92T316 118T369 188T388 284Q388
342 364 374T292 406Q250 406 217 380T164 311T145 215Q145 157 169 125T241 92Q283 92 316 118ZM234 647L366 745L476 633L460 554L345 637L217 566L234 647Z" />
<glyph unicode="&#xf5;" glyph-name="otilde" horiz-adv-x="549" d="M157 -10T111 18T41 95T17 205Q17 284 54 353T159 465T309 508Q376 508 422 480T492 403T516 293Q516 214 479 145T374 33T224 -10Q157 -10 111 18ZM283 92T316 118T369 188T388 284Q388 342
364 374T292 406Q250 406 217 380T164 311T145 215Q145 157 169 125T241 92Q283 92 316 118ZM409 578T394 583T351 601Q334 609 317 615T288 621Q271 621 260 612T246 586H168Q176 645 203 676T272 707Q289 707 306 701T346 683Q386 664 404 664Q436 664 442 702H524Q514
639 490 609T424 578Q409 578 394 583Z" />
<glyph unicode="&#xf6;" glyph-name="odieresis" horiz-adv-x="549" d="M157 -10T111 18T41 95T17 205Q17 284 54 353T159 465T309 508Q376 508 422 480T492 403T516 293Q516 214 479 145T374 33T224 -10Q157 -10 111 18ZM283 92T316 118T369 188T388 284Q388
342 364 374T292 406Q250 406 217 380T164 311T145 215Q145 157 169 125T241 92Q283 92 316 118ZM207 681H301L283 591H189L207 681ZM405 681H499L481 591H387L405 681Z" />
<glyph unicode="&#xf7;" glyph-name="divide" horiz-adv-x="474" d="M198 510H314L292 384H176L198 510ZM22 324H424L408 230H6L22 324ZM138 170H254L232 44H116L138 170Z" />
<glyph unicode="&#xf8;" glyph-name="oslash" horiz-adv-x="549" d="M462 448Q489 418 502 379T516 293Q516 214 479 145T374 33T224 -10Q176 -10 136 6L102 -40H15L77 44Q47 74 32 115T17 205Q17 284 54 353T159 465T309 508Q362 508 405 489L436 530H523L462
448ZM145 176T155 150L337 396Q318 406 292 406Q250 406 217 380T164 311T145 215Q145 176 155 150ZM388 316T381 338L204 98Q221 92 241 92Q283 92 316 118T369 188T388 284Q388 316 381 338Z" />
<glyph unicode="&#xf9;" glyph-name="ugrave" horiz-adv-x="541" d="M116 -10T76 35T35 161Q35 187 42 227L89 500H213L168 236Q161 198 161 178Q161 135 179 115T235 94Q289 94 329 136L394 500H518L430 0H313L318 37Q288 14 260 2T196 -10Q116 -10 76 35ZM235
646L255 761L424 649L410 570L235 646Z" />
<glyph unicode="&#xfa;" glyph-name="uacute" horiz-adv-x="541" d="M116 -10T76 35T35 161Q35 187 42 227L89 500H213L168 236Q161 198 161 178Q161 135 179 115T235 94Q289 94 329 136L394 500H518L430 0H313L318 37Q288 14 260 2T196 -10Q116 -10 76 35ZM244
653L446 761L427 636L227 570L244 653Z" />
<glyph unicode="&#xfb;" glyph-name="ucircumflex" horiz-adv-x="541" d="M116 -10T76 35T35 161Q35 187 42 227L89 500H213L168 236Q161 198 161 178Q161 135 179 115T235 94Q289 94 329 136L394 500H518L430 0H313L318 37Q288 14 260 2T196 -10Q116 -10 76 35ZM220
647L352 745L462 633L446 554L331 637L203 566L220 647Z" />
<glyph unicode="&#xfc;" glyph-name="udieresis" horiz-adv-x="541" d="M116 -10T76 35T35 161Q35 187 42 227L89 500H213L168 236Q161 198 161 178Q161 135 179 115T235 94Q289 94 329 136L394 500H518L430 0H313L318 37Q288 14 260 2T196 -10Q116 -10 76 35ZM193
681H287L269 591H175L193 681ZM391 681H485L467 591H373L391 681Z" />
<glyph unicode="&#xfd;" glyph-name="yacute" horiz-adv-x="523" d="M152 33L34 500H172L234 178L415 500H553L120 -242H-3L152 33ZM234 653L436 761L417 636L217 570L234 653Z" />
<glyph unicode="&#xfe;" glyph-name="thorn" horiz-adv-x="560" d="M139 750H263L212 462Q277 508 350 508Q433 508 479 451T526 297Q526 206 496 137T409 29T276 -10Q228 -10 194 8T140 56L88 -242H-36L139 750ZM325 92T361 146T398 285Q398 341 377 373T311
406Q244 406 204 348T163 204Q163 92 266 92Q325 92 361 146Z" />
<glyph unicode="&#xff;" glyph-name="ydieresis" horiz-adv-x="523" d="M152 33L34 500H172L234 178L415 500H553L120 -242H-3L152 33ZM183 681H277L259 591H165L183 681ZM381 681H475L457 591H363L381 681Z" />
<glyph unicode="&#x2013;" glyph-name="endash" horiz-adv-x="656" d="M17 358H656L639 264H0L17 358Z" />
<glyph unicode="&#x2014;" glyph-name="emdash" horiz-adv-x="749" d="M17 358H749L733 264H0L17 358Z" />
<glyph unicode="&#x2018;" glyph-name="quoteleft" horiz-adv-x="208" d="M238 700L173 580H224L200 444H70L92 568L180 700H238Z" />
<glyph unicode="&#x2019;" glyph-name="quoteright" horiz-adv-x="208" d="M70 444L135 564H84L108 700H238L216 576L128 444H70Z" />
<glyph unicode="&#x201a;" glyph-name="quotesinglbase" horiz-adv-x="200" d="M-28 -120L37 0H-14L10 136H140L118 12L30 -120H-28Z" />
<glyph unicode="&#x201c;" glyph-name="quotedblleft" horiz-adv-x="398" d="M239 713L174 593H225L201 457H71L93 581L181 713H239ZM429 713L364 593H415L391 457H261L283 581L371 713H429Z" />
<glyph unicode="&#x201d;" glyph-name="quotedblright" horiz-adv-x="398" d="M70 444L135 564H84L108 700H238L216 576L128 444H70ZM260 444L325 564H274L298 700H428L406 576L318 444H260Z" />
<glyph unicode="&#x201e;" glyph-name="quotedblbase" horiz-adv-x="390" d="M-28 -120L37 0H-14L10 136H140L118 12L30 -120H-28ZM162 -120L227 0H176L200 136H330L308 12L220 -120H162Z" />
<glyph unicode="&#x2022;" glyph-name="bullet" horiz-adv-x="292" d="M85 169T61 196T36 262Q36 295 54 323T101 369T162 387Q200 387 224 360T249 294Q249 261 231 233T184 187T123 169Q85 169 61 196Z" />
<glyph unicode="&#x2039;" glyph-name="guilsinglleft" horiz-adv-x="343" d="M12 284L193 490H340L159 284L268 78H121L12 284Z" />
<glyph unicode="&#x203a;" glyph-name="guilsinglright" horiz-adv-x="343" d="M180 284L72 490H219L327 284L146 78H-1L180 284Z" />
</font>
</defs>
</svg>
