<?xml version="1.0" standalone="no"?>
<!DOCTYPE svg PUBLIC "-//W3C//DTD SVG 1.1//EN" "http://www.w3.org/Graphics/SVG/1.1/DTD/svg11.dtd">
<svg xmlns="http://www.w3.org/2000/svg">
<defs >
<font id="Cabin" horiz-adv-x="495" ><font-face
    font-family="Cabin"
    units-per-em="1000"
    panose-1="0 0 5 0 0 0 0 0 0 0"
    ascent="965"
    descent="-250"
    alphabetic="0" />
<glyph unicode=" " glyph-name="space" horiz-adv-x="203" />
<glyph unicode="!" glyph-name="exclam" horiz-adv-x="190" d="M37 198L106 700H230L121 198L117 172H33L37 198ZM9 106H117L98 0H-10L9 106Z" />
<glyph unicode="&quot;" glyph-name="quotedbl" horiz-adv-x="288" d="M58 700H158L102 490H38L58 700ZM208 700H308L252 490H188L208 700Z" />
<glyph unicode="#" glyph-name="numbersign" horiz-adv-x="645" d="M128 216H20L74 307H177L235 422H123L165 507H281L381 700H458L357 507H471L572 700H648L548 507H649L607 422H503L444 307H559L504 216H395L278 -11H201L319 216H205L87 -11H11L128 216ZM367
307L426 422H313L253 307H367Z" />
<glyph unicode="$" glyph-name="dollar" horiz-adv-x="548" d="M285 628T250 616T191 577T167 513Q167 474 194 453T281 408Q350 381 384 364T445 310T472 213Q472 130 417 66T242 -11L226 -144H148L178 -14Q116 -13 67 0T-10 31L22 142Q103 72 203 72Q272 72
318 102T365 192Q365 227 348 250T305 287T231 321Q172 345 142 360T87 406T62 485Q62 535 89 588T177 677T328 714L343 844H421L390 709Q461 699 518 666L491 565Q448 597 409 612T321 628Q285 628 250 616Z" />
<glyph unicode="%" glyph-name="percent" horiz-adv-x="859" d="M356 314T321 355T286 464Q286 528 312 585T384 678T491 714Q554 714 590 675T628 568Q628 502 602 444T529 350T421 314Q356 314 321 355ZM469 386T494 412T532 478T545 560Q545 601 528 621T479
642Q443 642 418 616T381 551T368 470Q368 429 384 408T433 386Q469 386 494 412ZM642 700H726L200 0H115L642 700ZM537 -14T502 27T467 136Q467 200 493 257T565 350T672 386Q735 386 771 347T809 240Q809 174 783 116T710 22T602 -14Q537 -14 502 27ZM650 58T675
84T713 150T726 232Q726 273 709 293T660 314Q624 314 599 288T562 223T549 142Q549 101 565 80T614 58Q650 58 675 84Z" />
<glyph unicode="&amp;" glyph-name="ampersand" horiz-adv-x="560" d="M101 -23T57 18T12 131Q12 196 49 252T164 366Q124 449 124 513Q124 569 153 612T231 679T332 703Q390 703 418 675T447 598Q447 528 395 467T264 356L387 161Q414 199 447 351H531Q499 194
433 100L498 0H401L373 46Q330 8 289 -7T195 -23Q101 -23 57 18ZM266 432Q304 464 323 482T354 523T366 574Q366 634 311 634Q270 634 240 602T209 513Q209 459 235 406L266 432ZM250 45T280 60T338 105L197 313Q156 283 130 238T104 145Q104 100 130 73T210 45Q250
45 280 60Z" />
<glyph unicode="&apos;" glyph-name="quotesingle" horiz-adv-x="138" d="M58 700H158L102 490H38L58 700Z" />
<glyph unicode="(" glyph-name="parenleft" horiz-adv-x="258" d="M56 0T56 156Q56 318 112 469T274 750H361Q257 615 202 463T146 153Q146 5 205 -136H126Q56 0 56 156Z" />
<glyph unicode=")" glyph-name="parenright" horiz-adv-x="258" d="M202 614T202 458Q202 296 146 145T-16 -136H-103Q1 -1 56 151T112 461Q112 609 53 750H132Q202 614 202 458Z" />
<glyph unicode="*" glyph-name="asterisk" horiz-adv-x="405" d="M196 560L72 641L106 687L222 598L242 750H299L266 599L411 689L431 639L277 558L401 476L367 430L252 518L231 367H174L207 518L62 428L42 478L196 560Z" />
<glyph unicode="+" glyph-name="plus" horiz-adv-x="424" d="M141 243H10L24 319H155L178 452H258L235 319H366L352 243H221L198 110H118L141 243Z" />
<glyph unicode="," glyph-name="comma" horiz-adv-x="187" d="M-30 -107L25 0H-10L9 106H117L100 10L27 -107H-30Z" />
<glyph unicode="-" glyph-name="hyphen" horiz-adv-x="396" d="M63 354H342L327 268H48L63 354Z" />
<glyph unicode="." glyph-name="period" horiz-adv-x="186" d="M8 106H116L98 0H-10L8 106Z" />
<glyph unicode="/" glyph-name="slash" horiz-adv-x="391" d="M352 700H451L49 -85H-50L352 700Z" />
<glyph unicode="0" glyph-name="zero" horiz-adv-x="675" d="M153 -14T94 59T34 259Q34 376 79 481T205 650T391 714Q498 714 559 643T621 450Q621 334 576 227T448 53T263 -14Q153 -14 94 59ZM354 72T409 126T492 267T521 447Q521 536 483 582T376 628Q299 628
245 575T163 436T135 260Q135 169 171 121T278 72Q354 72 409 126Z" />
<glyph unicode="1" glyph-name="one" horiz-adv-x="316" d="M166 563Q128 536 102 523T51 502L50 591Q94 605 141 635T217 700H282L158 0H66L166 563Z" />
<glyph unicode="2" glyph-name="two" horiz-adv-x="488" d="M201 291Q279 389 308 439T338 539Q338 578 316 601T254 624Q207 624 162 601T68 535L74 635Q115 670 168 692T275 714Q355 714 396 671T438 554Q438 504 421 459T372 370T278 247L150 87H389L374 1H-30L201
291Z" />
<glyph unicode="3" glyph-name="three" horiz-adv-x="513" d="M368 343T395 302T422 203Q422 142 391 93T303 15T178 -14Q71 -14 -30 48L9 136Q55 104 97 88T184 72Q244 72 281 106T319 199Q319 255 285 286T179 317H140L155 403H194Q265 403 308 439T352 538Q352
628 257 628Q192 628 105 571L106 668Q189 714 287 714Q366 714 412 670T459 555Q459 489 421 439T318 364Q368 343 395 302Z" />
<glyph unicode="4" glyph-name="four" horiz-adv-x="560" d="M504 262L490 181H410L378 0H286L318 181H-20L433 700H502L424 262H504ZM332 262L378 516L157 262H332Z" />
<glyph unicode="5" glyph-name="five" horiz-adv-x="511" d="M229 610L178 439Q203 442 230 442Q329 442 383 386T438 238Q438 164 404 107T311 18T175 -14Q65 -14 -21 43L23 123Q64 97 99 85T178 72Q252 72 295 115T338 228Q338 291 301 325T194 360Q134 360
66 349L167 700H485L465 610H229Z" />
<glyph unicode="6" glyph-name="six" horiz-adv-x="549" d="M390 420T439 370T489 240Q489 170 455 112T360 20T224 -14Q130 -14 75 41T20 191Q20 295 75 397T223 581T421 714L475 643Q366 594 279 523T149 364Q181 391 221 405T308 420Q390 420 439 370ZM275
68T311 91T368 151T389 231Q389 279 361 308T283 338Q237 338 199 316T140 255T118 175Q119 126 148 97T230 68Q275 68 311 91Z" />
<glyph unicode="7" glyph-name="seven" horiz-adv-x="485" d="M525 700L118 0H18L370 610H76L92 700H525Z" />
<glyph unicode="8" glyph-name="eight" horiz-adv-x="584" d="M459 359T477 323T496 240Q496 167 461 109T364 19T228 -14Q136 -14 79 34T22 162Q22 233 60 292T163 384Q139 403 126 431T112 494Q112 556 143 606T228 685T346 714Q431 714 473 670T516 558Q516
502 492 457T424 383Q459 359 477 323ZM279 628T244 593T208 506Q208 469 231 445T298 421Q351 421 385 456T420 544Q420 583 398 605T334 628Q279 628 244 593ZM308 72T352 116T397 229Q396 279 367 308T283 338Q237 338 200 316T142 255T121 172Q122 125 151
99T236 72Q308 72 352 116Z" />
<glyph unicode="9" glyph-name="nine" horiz-adv-x="559" d="M409 714T464 659T519 509Q519 405 464 303T316 119T118 -14L64 57Q173 106 260 177T390 336Q358 309 318 295T231 280Q149 280 100 330T50 460Q50 530 84 588T179 680T315 714Q409 714 464 659ZM302
362T340 384T399 445T421 525Q420 574 391 603T309 632Q264 632 228 609T171 549T150 469Q150 421 178 392T256 362Q302 362 340 384Z" />
<glyph unicode=":" glyph-name="colon" horiz-adv-x="186" d="M72 490H180L162 384H54L72 490ZM8 106H116L98 0H-10L8 106Z" />
<glyph unicode=";" glyph-name="semicolon" horiz-adv-x="187" d="M-30 -107L25 0H-10L9 106H117L100 10L27 -107H-30ZM73 490H181L163 384H55L73 490Z" />
<glyph unicode="&lt;" glyph-name="less" horiz-adv-x="423" d="M26 324L403 487L388 399L94 279L346 159L331 75L10 238L26 324Z" />
<glyph unicode="=" glyph-name="equal" horiz-adv-x="441" d="M42 394H392L378 318H28L42 394ZM14 236H364L350 160H0L14 236Z" />
<glyph unicode="&gt;" glyph-name="greater" horiz-adv-x="403" d="M347 238L-30 75L-15 163L279 283L27 403L42 487L363 324L347 238Z" />
<glyph unicode="?" glyph-name="question" horiz-adv-x="442" d="M112 197Q122 255 149 293T227 383Q263 420 281 441T312 489T325 546Q325 586 298 607T231 628Q166 628 95 590L100 671Q177 714 269 714Q348 714 389 674T432 571Q432 528 417 493T379 431T313
361Q263 311 239 279T207 203L201 172H107L112 197ZM89 106H197L178 0H70L89 106Z" />
<glyph unicode="@" glyph-name="at" horiz-adv-x="667" d="M122 -87T74 -34T25 114Q25 231 85 332T241 493T438 553Q527 553 575 500T624 353Q624 295 605 235T547 134T454 94Q438 94 430 100T422 128Q422 154 432 183T468 269Q496 331 515 379Q499 402 474 417T415
432Q355 432 289 385T178 265T133 124Q133 87 148 64T198 40Q240 40 292 71T381 156Q380 151 375 136T370 102Q370 77 379 60T410 42Q435 42 473 61T538 106Q480 19 391 -34T209 -87Q122 -87 74 -34ZM224 106T217 118T209 152Q209 207 243 257T326 339T412 371Q445
371 449 349Q431 297 393 240T312 144T240 106Q224 106 217 118Z" />
<glyph unicode="A" glyph-name="A" horiz-adv-x="568" d="M312 700H408L510 0H410L385 189H154L63 0H-37L312 700ZM369 275L336 567L200 275H369Z" />
<glyph unicode="B" glyph-name="B" horiz-adv-x="565" d="M151 700H309Q411 700 463 666T515 550Q515 489 489 445T416 377Q513 341 513 231Q513 118 438 59T233 0H28L151 700ZM287 409Q347 409 382 441T418 527Q418 573 393 594T318 615H231L195 409H287ZM234
86Q312 86 362 121T413 221Q413 323 299 323H180L138 86H234Z" />
<glyph unicode="C" glyph-name="C" horiz-adv-x="565" d="M226 -14T168 21T78 124T46 284Q46 405 98 503T239 658T431 714Q478 714 524 703T601 673L575 585L554 594Q515 611 485 619T418 628Q338 628 277 581T184 455T151 289Q151 190 194 131T323 72Q358 72
392 81T471 107L492 114L486 26Q448 8 399 -3T305 -14Q226 -14 168 21Z" />
<glyph unicode="D" glyph-name="D" horiz-adv-x="672" d="M151 700H385Q505 700 574 625T644 411Q644 292 593 198T455 52T262 0H28L151 700ZM277 86Q358 86 417 129T508 246T539 406Q539 505 497 559T370 614H231L138 86H277Z" />
<glyph unicode="E" glyph-name="E" horiz-adv-x="514" d="M151 700H542L527 614H232L196 409H428L413 323H181L139 86H442L427 0H28L151 700Z" />
<glyph unicode="F" glyph-name="F" horiz-adv-x="487" d="M151 700H537L522 614H231L195 409H419L404 323H180L123 0H28L151 700Z" />
<glyph unicode="G" glyph-name="G" horiz-adv-x="621" d="M231 -14T172 21T80 124T47 285Q47 406 99 504T239 658T432 714Q480 714 531 703T615 674L591 591Q552 607 507 617T422 628Q337 628 276 580T183 454T151 290Q151 188 197 130T335 72Q394 72 438 91L469
265H379L394 351H579L524 39Q483 16 424 1T309 -14Q231 -14 172 21Z" />
<glyph unicode="H" glyph-name="H" horiz-adv-x="688" d="M151 700H246L195 411H533L584 700H679L555 0H460L517 321H180L123 0H28L151 700Z" />
<glyph unicode="I" glyph-name="I" horiz-adv-x="255" d="M151 700H246L123 0H28L151 700Z" />
<glyph unicode="J" glyph-name="J" horiz-adv-x="256" d="M-74 -116H-65Q-22 -116 -3 -90T28 -3L152 700H247L118 -32Q106 -100 63 -136T-55 -172H-76L-74 -116Z" />
<glyph unicode="K" glyph-name="K" horiz-adv-x="547" d="M151 700H246L123 0H28L151 700ZM197 371L484 700H598L299 371L492 0H383L197 371Z" />
<glyph unicode="L" glyph-name="L" horiz-adv-x="467" d="M151 700H246L138 86H418L402 0H28L151 700Z" />
<glyph unicode="M" glyph-name="M" horiz-adv-x="752" d="M206 700H292L386 353L602 700H688L650 0H550L584 516L354 166L245 516L97 0H-3L206 700Z" />
<glyph unicode="N" glyph-name="N" horiz-adv-x="653" d="M151 700H251L456 176L548 700H644L520 0H440L221 553L123 0H28L151 700Z" />
<glyph unicode="O" glyph-name="O" horiz-adv-x="710" d="M184 -14T115 64T46 282Q46 403 97 502T236 657T426 714Q545 714 614 636T683 418Q683 297 631 198T492 43T303 -14Q184 -14 115 64ZM396 72T455 120T546 246T579 412Q579 510 537 569T410 628Q333 628
274 581T183 455T151 288Q151 191 192 132T319 72Q396 72 455 120Z" />
<glyph unicode="P" glyph-name="P" horiz-adv-x="538" d="M151 700H344Q448 700 498 655T549 512Q549 419 514 359T421 272T298 245H169L126 0H28L151 700ZM297 330Q369 330 409 377T449 499Q449 555 424 585T342 615H235L184 330H297Z" />
<glyph unicode="Q" glyph-name="Q" horiz-adv-x="709" d="M224 -14T167 21T78 124T46 283Q46 404 97 502T236 657T425 714Q505 714 563 678T652 576T683 420Q683 340 656 266T570 111L616 62L553 3L503 57Q407 -14 301 -14Q224 -14 167 21ZM395 72T446 112L371
196L434 257L509 172Q546 228 565 278T584 404Q584 510 541 569T411 628Q333 628 274 580T183 454T151 286Q151 188 192 130T320 72Q395 72 446 112Z" />
<glyph unicode="R" glyph-name="R" horiz-adv-x="565" d="M151 700H346Q448 700 499 655T551 523Q551 438 508 379T398 298L491 0H390L302 273H174L126 0H28L151 700ZM310 365Q372 365 411 403T450 516Q450 570 425 596T342 623H236L190 365H310Z" />
<glyph unicode="S" glyph-name="S" horiz-adv-x="538" d="M139 -14T87 -1T6 31L38 142Q119 72 219 72Q288 72 334 102T381 192Q381 227 364 250T321 287T247 321Q188 345 158 360T103 406T78 485Q78 535 105 588T193 677T344 714Q401 714 450 700T534 666L507
565Q464 597 425 612T337 628Q301 628 266 616T207 577T183 513Q183 474 210 453T297 408Q366 381 400 364T461 310T488 213Q488 155 461 104T370 19T204 -14Q139 -14 87 -1Z" />
<glyph unicode="T" glyph-name="T" horiz-adv-x="523" d="M269 614H87L102 700H561L546 614H364L256 0H161L269 614Z" />
<glyph unicode="U" glyph-name="U" horiz-adv-x="668" d="M172 -14T119 42T65 204Q65 248 74 297L145 700H240L177 343Q165 276 165 229Q165 156 195 114T295 72Q391 72 439 146T509 343L572 700H667L596 297Q570 149 490 68T280 -14Q172 -14 119 42Z" />
<glyph unicode="V" glyph-name="V" horiz-adv-x="595" d="M75 700H175L261 115L553 700H653L294 0H188L75 700Z" />
<glyph unicode="W" glyph-name="W" horiz-adv-x="889" d="M93 700H193L220 118L467 686H566L608 119L846 700H945L637 0H541L496 574L245 0H146L93 700Z" />
<glyph unicode="X" glyph-name="X" horiz-adv-x="562" d="M232 357L88 700H198L306 422L516 700H619L341 356L500 0H397L275 287L65 0H-39L232 357Z" />
<glyph unicode="Y" glyph-name="Y" horiz-adv-x="546" d="M226 323L78 700H178L292 409L504 700H604L324 323L267 0H169L226 323Z" />
<glyph unicode="Z" glyph-name="Z" horiz-adv-x="500" d="M390 614H108L123 700H562L130 86H413L398 0H-41L390 614Z" />
<glyph unicode="[" glyph-name="bracketleft" horiz-adv-x="306" d="M152 750H383L371 682H223L91 -67H239L227 -135H-4L152 750Z" />
<glyph unicode="\" glyph-name="backslash" horiz-adv-x="305" d="M60 700H151L265 -85H174L60 700Z" />
<glyph unicode="]" glyph-name="bracketright" horiz-adv-x="310" d="M-56 -67H91L223 682H76L88 750H319L163 -135H-68L-56 -67Z" />
<glyph unicode="^" glyph-name="asciicircum" horiz-adv-x="431" d="M40 565L257 759L425 543L407 442L241 641L22 464L40 565Z" />
<glyph unicode="_" glyph-name="underscore" horiz-adv-x="501" d="M-55 -36H449L434 -122H-70L-55 -36Z" />
<glyph unicode="`" glyph-name="grave" horiz-adv-x="376" d="M110 645L127 743L286 637L275 576L110 645Z" />
<glyph unicode="a" glyph-name="a" horiz-adv-x="540" d="M110 -10T66 43T21 186Q21 265 54 337T147 455T279 500Q361 500 393 438L412 490H492L433 143Q429 122 429 104Q429 80 439 71T476 62L451 -10Q416 -10 395 -6T359 13T337 62Q276 -10 184 -10Q110 -10
66 43ZM253 70T289 94T348 166T371 277Q371 349 343 384T269 420Q226 420 191 391T136 312T115 205Q115 145 139 108T214 70Q253 70 289 94Z" />
<glyph unicode="b" glyph-name="b" horiz-adv-x="520" d="M152 -10T110 62L92 0H10L142 750H233L178 437Q232 500 315 500Q395 500 438 441T482 294Q482 200 450 131T363 26T246 -10Q152 -10 110 62ZM283 70T316 98T369 175T388 285Q388 346 363 383T290 420Q250
420 214 394T156 318T134 204Q134 135 163 103T241 70Q283 70 316 98Z" />
<glyph unicode="c" glyph-name="c" horiz-adv-x="418" d="M114 -10T69 47T23 199Q23 279 55 348T149 458T299 500Q336 500 369 493T423 471L397 390Q350 420 299 420Q211 420 164 362T116 212Q116 143 146 106T239 69Q290 69 347 99L344 22Q284 -10 210 -10Q114
-10 69 47Z" />
<glyph unicode="d" glyph-name="d" horiz-adv-x="520" d="M539 750L407 0H324L328 62Q297 27 260 9T184 -10Q136 -10 99 17T42 91T21 197Q21 273 53 343T142 456T269 500Q312 500 341 484T392 431L448 750H539ZM253 70T289 94T348 166T371 277Q371 349 343 384T269
420Q226 420 191 391T136 312T115 205Q115 145 139 108T214 70Q253 70 289 94Z" />
<glyph unicode="e" glyph-name="e" horiz-adv-x="458" d="M123 -10T72 49T21 202Q21 280 55 348T150 458T288 500Q358 500 396 466T434 375Q434 334 413 297T340 235T206 210Q182 210 157 212T118 218Q118 136 151 103T245 70Q276 70 312 77T380 99L376 28Q310
-10 221 -10Q123 -10 72 49ZM279 271T315 299T351 364Q351 392 331 406T279 420Q231 420 192 386T128 281Q158 271 198 271Q279 271 315 299Z" />
<glyph unicode="f" glyph-name="f" horiz-adv-x="303" d="M108 420H36L58 490H120L142 614Q153 679 187 714T287 750Q328 750 363 737L338 661Q315 670 289 670Q268 670 257 661T239 628T222 550L211 490H324L311 420H199L125 0H34L108 420Z" />
<glyph unicode="g" glyph-name="g" horiz-adv-x="459" d="M79 -250T37 -231T-23 -182T-42 -123Q-42 -89 -20 -52T56 8Q39 19 31 34T23 62Q23 80 39 103T86 143Q37 195 37 274Q37 332 64 384T140 468T255 500Q317 500 359 464Q406 492 467 492H481L462 432H435Q428
432 415 430T390 425Q409 386 409 337Q409 283 382 231T305 146T193 113Q161 113 135 122Q112 106 112 89Q112 73 136 64T232 40Q300 26 345 0T390 -81Q390 -123 360 -162T273 -225T144 -250Q79 -250 37 -231ZM239 182T266 203T309 260T324 334Q324 380 303 404T243
428Q189 428 156 385T122 280Q122 233 143 208T203 182Q239 182 266 203ZM199 -180T232 -168T283 -136T301 -95Q301 -66 270 -52T180 -27Q143 -20 125 -14Q91 -26 66 -53T41 -110Q41 -140 71 -160T156 -180Q199 -180 232 -168Z" />
<glyph unicode="h" glyph-name="h" horiz-adv-x="506" d="M142 750H234L178 437Q209 471 242 485T318 500Q384 500 418 457T452 348Q452 310 441 247L398 0H307L349 245Q360 309 360 336Q360 375 339 397T281 420Q246 420 218 404T164 356L101 0H10L142 750Z" />
<glyph unicode="i" glyph-name="i" horiz-adv-x="214" d="M133 700H224L207 600H116L133 700ZM96 490H187L101 0H10L96 490Z" />
<glyph unicode="j" glyph-name="j" horiz-adv-x="214" d="M134 700H225L207 600H116L134 700ZM-82 -173Q-55 -170 -41 -162T-19 -134T-3 -73L96 490H187L82 -107Q70 -171 35 -200T-53 -237L-85 -242L-82 -173Z" />
<glyph unicode="k" glyph-name="k" horiz-adv-x="428" d="M142 750H233L148 269L343 490H451L235 264L367 0H260L145 249L101 0H10L142 750Z" />
<glyph unicode="l" glyph-name="l" horiz-adv-x="234" d="M70 -10T47 13T24 76Q24 88 34 150L139 750H230L124 141Q119 110 119 102Q119 78 131 70T175 62L151 -10H120Q70 -10 47 13Z" />
<glyph unicode="m" glyph-name="m" horiz-adv-x="801" d="M96 490H168V438Q204 474 235 487T304 500Q351 500 384 479T434 402Q490 500 609 500Q751 500 751 360Q751 342 739 264T693 0H602Q634 180 646 253T658 340Q658 381 639 400T580 420Q517 420 487 380T447
284L397 0H306Q342 204 351 261T360 334Q360 382 341 401T283 420Q206 420 164 356L101 0H10L96 490Z" />
<glyph unicode="n" glyph-name="n" horiz-adv-x="515" d="M96 490H173L170 438Q207 473 241 486T316 500Q392 500 427 460T462 343Q462 323 453 263T407 0H316Q352 203 361 259T370 331Q370 377 350 398T286 420Q248 420 217 404T164 356L101 0H10L96 490Z" />
<glyph unicode="o" glyph-name="o" horiz-adv-x="514" d="M116 -10T69 47T21 197Q21 277 56 347T152 458T290 500Q380 500 427 442T475 292Q475 212 440 143T344 32T206 -10Q116 -10 69 47ZM268 70T305 98T362 176T382 285Q382 420 277 420Q228 420 191 392T134
314T114 205Q114 70 219 70Q268 70 305 98Z" />
<glyph unicode="p" glyph-name="p" horiz-adv-x="522" d="M96 490H170L167 420Q202 461 236 480T315 500Q396 500 439 442T482 293Q482 215 451 145T363 33T236 -10Q149 -10 111 62L58 -242H-33L96 490ZM276 70T311 100T367 180T388 287Q388 348 364 384T292 420Q252
420 216 394T157 319T134 206Q134 136 160 103T231 70Q276 70 311 100Z" />
<glyph unicode="q" glyph-name="q" horiz-adv-x="521" d="M328 62Q299 28 260 9T187 -10Q106 -10 64 45T21 189Q21 269 54 340T145 456T276 500Q322 500 349 481T399 420L420 490H494L365 -242H274L328 62ZM253 70T289 95T347 169T370 281Q370 352 343 386T271
420Q227 420 192 391T136 312T116 205Q116 144 140 107T213 70Q253 70 289 95Z" />
<glyph unicode="r" glyph-name="r" horiz-adv-x="307" d="M96 490H175L168 409Q210 460 248 484T326 508H340L304 409H271Q244 409 213 390T165 346L104 0H10L96 490Z" />
<glyph unicode="s" glyph-name="s" horiz-adv-x="389" d="M84 -10T48 3T-10 33L15 120Q34 101 68 86T146 70Q192 70 215 89T238 140Q238 171 219 186T165 212Q128 224 105 235T67 270T51 331Q51 372 71 410T134 474T244 500Q317 500 366 468L342 386Q325 405 299
417T238 429Q196 429 169 410T142 355Q142 327 160 314T231 283Q276 267 304 241T333 160Q333 123 318 85T259 18T138 -10Q84 -10 48 3Z" />
<glyph unicode="t" glyph-name="t" horiz-adv-x="303" d="M97 -10T74 15T50 81Q50 98 107 420H35L55 490H119L141 611L233 620L210 490H321L308 420H197Q167 252 156 182T144 101Q144 75 158 69T219 62H243L223 -10H148Q97 -10 74 15Z" />
<glyph unicode="u" glyph-name="u" horiz-adv-x="494" d="M105 -10T70 27T34 134Q34 158 42 202L91 490H182L135 216Q129 181 129 162Q129 70 207 70Q237 70 264 84T312 126L376 490H467L381 0H298L301 54Q245 -10 170 -10Q105 -10 70 27Z" />
<glyph unicode="v" glyph-name="v" horiz-adv-x="439" d="M35 490H131L182 99L369 490H466L211 0H118L35 490Z" />
<glyph unicode="w" glyph-name="w" horiz-adv-x="662" d="M49 490H149L162 99L319 475H406L431 99L582 490H682L463 0H371L343 362L186 0H95L49 490Z" />
<glyph unicode="x" glyph-name="x" horiz-adv-x="439" d="M157 246L52 490H156L222 300L351 490H458L255 238L375 0H271L195 191L67 0H-37L157 246Z" />
<glyph unicode="y" glyph-name="y" horiz-adv-x="459" d="M135 22L32 490H133L200 126L386 490H487L84 -242H-13L135 22Z" />
<glyph unicode="z" glyph-name="z" horiz-adv-x="430" d="M283 420H54L66 490H441L130 70H361L348 0H-29L283 420Z" />
<glyph unicode="{" glyph-name="braceleft" horiz-adv-x="280" d="M374 750L362 681H335Q282 681 252 656T211 570Q206 531 203 492Q199 436 195 414Q187 370 162 345T95 307Q125 296 141 277T157 227Q157 209 149 173T138 125Q116 37 116 9Q116 -32 138 -49T203
-67H230L218 -136H181Q107 -136 72 -105T37 -18Q37 0 44 31T59 95Q81 183 81 213Q81 246 66 261T15 277L25 337Q69 337 91 362T124 444Q129 487 132 521Q136 577 140 600Q152 669 201 709T337 750H374Z" />
<glyph unicode="|" glyph-name="bar" horiz-adv-x="215" d="M145 750H237L67 -209H-25L145 750Z" />
<glyph unicode="}" glyph-name="braceright" horiz-adv-x="280" d="M199 368T214 353T265 337L255 277Q211 277 189 252T156 170Q151 127 148 93Q144 37 140 14Q128 -55 79 -95T-57 -136H-94L-82 -67H-55Q-2 -67 28 -42T69 44Q74 83 77 122Q81 178 85 200Q93 244
118 269T185 307Q155 318 139 337T123 387Q123 405 131 441T142 489Q164 577 164 605Q164 646 142 663T77 681H50L62 750H99Q173 750 208 719T243 632Q243 614 236 583T221 519Q199 431 199 401Q199 368 214 353Z" />
<glyph unicode="~" glyph-name="asciitilde" horiz-adv-x="430" d="M273 294T256 300T217 320Q200 330 187 335T158 341Q139 341 126 330T109 298H36Q50 359 81 391T160 423Q183 423 201 416T242 396Q261 386 272 381T297 376Q316 376 328 388T345 422H418Q393
294 295 294Q273 294 256 300Z" />
<glyph unicode="&#xa0;" glyph-name="uni00A0" horiz-adv-x="203" />
<glyph unicode="&#xa1;" glyph-name="exclamdown" horiz-adv-x="180" d="M161 394H53L72 500H180L161 394ZM133 302L64 -200H-60L49 302L53 328H137L133 302Z" />
<glyph unicode="&#xa2;" glyph-name="cent" horiz-adv-x="444" d="M212 420T165 362T117 212Q117 143 147 106T240 69Q291 69 348 99L345 22Q295 -4 239 -9L223 -144H145L176 -8Q98 3 61 58T24 199Q24 274 52 339T134 447T266 498L281 630H359L328 499Q390 494
424 471L398 390Q351 420 300 420Q212 420 165 362Z" />
<glyph unicode="&#xa3;" glyph-name="sterling" horiz-adv-x="524" d="M340 628T309 597T261 508L228 390H405L392 316H207Q185 239 164 189T112 90H415L399 0H-30Q23 87 54 155T112 316H36L49 390H133L170 520Q197 616 252 665T395 714Q459 714 514 685L486 584Q460
605 437 616T387 628Q340 628 309 597Z" />
<glyph unicode="&#xa4;" glyph-name="currency" horiz-adv-x="628" d="M553 335T529 278T460 178L534 87L503 61L429 151Q351 94 258 94Q166 94 109 149L7 63L-18 93L85 180Q53 229 53 297Q53 360 78 417T147 518L72 609L103 635L178 544Q253 602 348 602Q394
602 431 588T496 546L599 633L624 603L521 516Q553 466 553 399Q553 335 529 278ZM144 248T177 212T273 176Q328 176 371 202T439 276T463 387Q463 447 430 483T333 520Q278 520 235 491T167 414T143 307Q144 248 177 212Z" />
<glyph unicode="&#xa5;" glyph-name="yen" horiz-adv-x="539" d="M307 361H426L413 287H273L261 221H401L388 147H248L222 0H124L150 147H10L23 221H163L175 287H35L48 361H166L33 700H133L247 409L459 700H559L307 361Z" />
<glyph unicode="&#xa6;" glyph-name="brokenbar" horiz-adv-x="211" d="M145 750H233L161 342H73L145 750ZM47 198H135L63 -210H-25L47 198Z" />
<glyph unicode="&#xa7;" glyph-name="section" horiz-adv-x="450" d="M265 690T234 665T202 603Q202 572 224 552T293 503Q335 478 360 459T404 409T422 335Q422 284 387 249T283 186Q331 143 331 72Q331 26 305 -9T235 -64T141 -84Q99 -84 63 -73T0 -41L24 22Q85
-23 153 -23Q204 -23 234 0T264 61Q264 100 239 122T161 169Q119 190 94 206T51 250T33 321Q33 377 73 419T182 482Q126 524 126 592Q126 637 150 673T217 729T313 750Q357 750 391 740T460 710L436 647Q374 690 313 690Q265 690 234 665ZM344 355T329 377T294
413T233 450Q105 425 105 342Q105 303 129 281T203 235Q227 223 239 216Q284 227 314 258T344 323Q344 355 329 377Z" />
<glyph unicode="&#xa8;" glyph-name="dieresis" horiz-adv-x="406" d="M96 671H180L164 591H80L96 671ZM282 671H366L350 591H266L282 671Z" />
<glyph unicode="&#xa9;" glyph-name="copyright" horiz-adv-x="667" d="M220 37T168 69T88 162T60 301Q60 413 107 502T233 642T405 693Q474 693 525 661T605 569T633 430Q633 318 587 228T462 88T289 37Q220 37 168 69ZM385 81T448 129T545 256T579 429Q579 528
533 588T397 648Q309 648 245 601T148 473T114 300Q114 201 160 141T297 81Q385 81 448 129ZM271 197T239 233T207 330Q207 388 231 433T295 504T384 530Q405 530 427 525T465 511L447 451Q407 470 373 470Q328 470 302 431T275 337Q275 301 290 279T336 256Q370
256 417 276L413 217Q395 207 371 202T325 197Q271 197 239 233Z" />
<glyph unicode="&#xaa;" glyph-name="ordfeminine" horiz-adv-x="307" d="M101 434T81 452T60 501Q60 602 238 620Q239 624 239 630Q239 646 228 654T193 662Q159 662 111 644L116 704Q168 725 224 725Q317 725 317 646Q317 634 314 617L300 537Q296 513 296 510Q296
501 300 498T314 495H317L299 434H273Q226 434 222 465Q207 450 183 442T133 434Q101 434 81 452ZM230 570Q193 566 167 553T141 513Q141 490 171 490Q196 490 219 507L230 570Z" />
<glyph unicode="&#xab;" glyph-name="guillemotleft" horiz-adv-x="535" d="M21 284L191 490H295L125 284L222 78H118L21 284ZM255 284L425 490H529L359 284L457 78H352L255 284Z" />
<glyph unicode="&#xac;" glyph-name="logicalnot" horiz-adv-x="503" d="M370 330H30L43 406H463L419 151H339L370 330Z" />
<glyph unicode="&#xad;" glyph-name="uni00AD" horiz-adv-x="416" d="M73 354H352L337 268H58L73 354Z" />
<glyph unicode="&#xae;" glyph-name="registered" horiz-adv-x="667" d="M220 37T168 69T88 162T60 301Q60 413 107 502T233 642T405 693Q474 693 525 661T605 569T633 430Q633 318 587 228T462 88T289 37Q220 37 168 69ZM384 80T448 128T546 256T580 429Q580
528 534 588T397 649Q309 649 245 601T148 474T114 301Q114 202 160 141T297 80Q384 80 448 128ZM269 531H378Q420 531 442 514T465 455Q465 389 400 344L441 210H376L339 327H296L276 210H212L269 531ZM338 383Q398 383 398 446Q398 464 389 473T357 482H324L306
383H338Z" />
<glyph unicode="&#xaf;" glyph-name="overscore" horiz-adv-x="446" d="M94 662H406L392 591H80L94 662Z" />
<glyph unicode="&#xb0;" glyph-name="degree" horiz-adv-x="279" d="M88 482T61 512T34 590Q34 635 54 673T108 733T185 755Q235 755 262 725T289 646Q289 600 269 563T215 504T137 482Q88 482 61 512ZM185 522T212 557T240 640Q240 672 225 693T178 715Q137 715
110 679T82 597Q82 565 98 544T144 522Q185 522 212 557Z" />
<glyph unicode="&#xb1;" glyph-name="plusminus" horiz-adv-x="432" d="M165 312H31L44 384H178L202 520H272L248 384H382L369 312H235L211 176H141L165 312ZM-1 132H337L324 60H-14L-1 132Z" />
<glyph unicode="&#xb2;" glyph-name="uni00B2" horiz-adv-x="318" d="M167 454H286L274 386H17L156 544Q189 581 204 606T220 657Q220 677 209 688T174 700Q147 700 123 689T71 657L77 734Q102 750 135 761T199 772Q248 772 276 746T305 677Q305 636 284 601T218
513L167 454Z" />
<glyph unicode="&#xb3;" glyph-name="uni00B3" horiz-adv-x="338" d="M304 563T304 506Q304 468 283 439T225 393T147 376Q80 376 27 409L58 477Q81 459 102 450T149 441Q182 441 201 456T221 501Q221 524 207 536T163 549H135L147 614H176Q207 614 226 630T245
669Q245 689 232 700T193 711Q151 711 103 683L108 752Q161 776 220 776Q270 776 297 752T325 686Q325 652 306 626T252 585Q304 563 304 506Z" />
<glyph unicode="&#xb4;" glyph-name="acute" horiz-adv-x="395" d="M122 643L305 747L288 636L110 575L122 643Z" />
<glyph unicode="&#xb5;" glyph-name="uni00B5" horiz-adv-x="503" d="M100 490H191L143 212Q138 180 138 162Q138 116 159 93T220 69Q247 69 270 82T320 121L385 490H476L419 170Q412 126 412 110Q412 62 447 62H459L430 -10H414Q326 -10 310 54Q253 -11 183 -11Q133
-11 104 12L58 -242H-30L100 490Z" />
<glyph unicode="&#xb6;" glyph-name="paragraph" horiz-adv-x="572" d="M273 243Q202 248 155 276T86 348T63 442Q63 504 98 564T202 662T365 700H599L587 633H521L409 0H355L466 633H387L275 0H230L273 243Z" />
<glyph unicode="&#xb7;" glyph-name="middot" horiz-adv-x="230" d="M67 343H179L156 213H44L67 343Z" />
<glyph unicode="&#xb8;" glyph-name="cedilla" horiz-adv-x="319" d="M239 -54T259 -71T279 -120Q279 -166 244 -196T155 -226Q112 -226 80 -207L104 -158Q132 -175 164 -175Q190 -175 205 -163T220 -131Q220 -97 176 -97Q152 -97 128 -105L173 0H223L196 -54H204Q239
-54 259 -71Z" />
<glyph unicode="&#xb9;" glyph-name="uni00B9" horiz-adv-x="197" d="M102 665Q71 641 38 632L42 698Q68 706 95 723T139 758H194L128 386H53L102 665Z" />
<glyph unicode="&#xba;" glyph-name="ordmasculine" horiz-adv-x="324" d="M125 434T93 467T60 552Q60 598 83 638T147 701T235 725Q294 725 326 693T358 609Q358 556 335 516T271 455T183 434Q125 434 93 467ZM233 494T256 527T280 604Q280 632 266 649T224 666Q185
666 162 634T138 559Q138 529 152 512T194 494Q233 494 256 527Z" />
<glyph unicode="&#xbb;" glyph-name="guillemotright" horiz-adv-x="536" d="M174 284L76 490H180L277 284L107 78H3L174 284ZM407 284L310 490H413L511 284L341 78H237L407 284Z" />
<glyph unicode="&#xbc;" glyph-name="onequarter" horiz-adv-x="611" d="M94 607Q63 583 30 574L34 640Q60 648 87 665T131 700H186L120 328H45L94 607ZM497 700H581L55 0H-30L497 700ZM598 138L587 79H538L524 0H458L472 79H273L534 372H590L549 138H598ZM483
138L504 261L398 138H483Z" />
<glyph unicode="&#xbd;" glyph-name="onehalf" horiz-adv-x="663" d="M497 700H581L55 0H-30L497 700ZM475 68H594L582 0H325L464 158Q497 195 512 220T528 271Q528 291 517 302T482 314Q455 314 431 303T379 271L385 348Q410 364 443 375T507 386Q556 386 584
360T613 291Q613 250 592 215T526 127L475 68ZM94 607Q63 583 30 574L34 640Q60 648 87 665T131 700H186L120 328H45L94 607Z" />
<glyph unicode="&#xbe;" glyph-name="threequarters" horiz-adv-x="713" d="M599 700H683L157 0H72L599 700ZM297 501T297 444Q297 406 276 377T218 331T140 314Q73 314 20 347L51 415Q74 397 95 388T142 379Q175 379 194 394T214 439Q214 462 200 474T156 487H128L140
552H169Q200 552 219 568T238 607Q238 627 225 638T186 649Q144 649 96 621L101 690Q154 714 213 714Q263 714 290 690T318 624Q318 590 299 564T245 523Q297 501 297 444ZM700 138L689 79H640L626 0H560L574 79H375L636 372H692L651 138H700ZM585 138L606 261L500
138H585Z" />
<glyph unicode="&#xbf;" glyph-name="questiondown" horiz-adv-x="437" d="M358 394H250L269 500H377L358 394ZM335 303Q325 245 298 207T220 117Q184 80 166 59T135 11T122 -46Q122 -86 149 -107T216 -128Q281 -128 352 -90L347 -171Q270 -214 178 -214Q99 -214
58 -174T15 -71Q15 -28 30 7T68 69T134 139Q184 189 208 221T240 297L246 328H340L335 303Z" />
<glyph unicode="&#xc0;" glyph-name="Agrave" horiz-adv-x="568" d="M312 700H408L510 0H410L385 189H154L63 0H-37L312 700ZM369 275L336 567L200 275H369ZM298 855L315 953L474 847L463 786L298 855Z" />
<glyph unicode="&#xc1;" glyph-name="Aacute" horiz-adv-x="568" d="M312 700H408L510 0H410L385 189H154L63 0H-37L312 700ZM369 275L336 567L200 275H369ZM305 853L488 957L471 846L293 785L305 853Z" />
<glyph unicode="&#xc2;" glyph-name="Acircumflex" horiz-adv-x="568" d="M312 700H408L510 0H410L385 189H154L63 0H-37L312 700ZM369 275L336 567L200 275H369ZM280 848L408 945L513 835L501 774L390 854L265 784L280 848Z" />
<glyph unicode="&#xc3;" glyph-name="Atilde" horiz-adv-x="568" d="M312 700H408L510 0H410L385 189H154L63 0H-37L312 700ZM369 275L336 567L200 275H369ZM441 790T426 796T388 813Q368 823 355 828T330 834Q300 834 292 798H220Q246 909 325 909Q341 909 355
904T390 886Q408 876 421 871T448 865Q479 865 486 904H558Q545 845 520 818T456 790Q441 790 426 796Z" />
<glyph unicode="&#xc4;" glyph-name="Adieresis" horiz-adv-x="568" d="M312 700H408L510 0H410L385 189H154L63 0H-37L312 700ZM369 275L336 567L200 275H369ZM260 881H344L328 801H244L260 881ZM446 881H530L514 801H430L446 881Z" />
<glyph unicode="&#xc5;" glyph-name="Aring" horiz-adv-x="568" d="M312 700H408L510 0H410L385 189H154L63 0H-37L312 700ZM369 275L336 567L200 275H369ZM332 778T310 800T287 857Q287 907 323 942T410 978Q452 978 474 956T497 899Q497 848 462 813T374 778Q332
778 310 800ZM407 822T426 842T445 889Q445 909 433 921T403 934Q378 934 359 914T339 866Q339 846 351 834T381 822Q407 822 426 842Z" />
<glyph unicode="&#xc6;" glyph-name="AE" horiz-adv-x="788" d="M379 700H817L801 613H525L489 409H702L687 323H474L432 86H717L702 0H310L341 180H155L43 0H-52L379 700ZM358 272L417 611L214 272H358Z" />
<glyph unicode="&#xc7;" glyph-name="Ccedilla" horiz-adv-x="565" d="M338 628T277 581T184 455T151 289Q151 190 194 131T323 72Q358 72 392 81T471 107L492 114L486 26Q454 11 414 1T335 -13L314 -54H322Q357 -54 377 -71T397 -120Q397 -166 362 -196T273 -226Q230
-226 198 -207L222 -158Q250 -175 282 -175Q308 -175 323 -163T338 -131Q338 -97 294 -97Q270 -97 246 -105L285 -13Q174 -7 110 71T46 284Q46 405 98 503T239 658T431 714Q478 714 524 703T601 673L575 585L554 594Q515 611 485 619T418 628Q338 628 277 581Z"
/>
<glyph unicode="&#xc8;" glyph-name="Egrave" horiz-adv-x="514" d="M151 700H542L527 614H232L196 409H428L413 323H181L139 86H442L427 0H28L151 700ZM283 855L300 953L459 847L448 786L283 855Z" />
<glyph unicode="&#xc9;" glyph-name="Eacute" horiz-adv-x="514" d="M151 700H542L527 614H232L196 409H428L413 323H181L139 86H442L427 0H28L151 700ZM290 853L473 957L456 846L278 785L290 853Z" />
<glyph unicode="&#xca;" glyph-name="Ecircumflex" horiz-adv-x="514" d="M151 700H542L527 614H232L196 409H428L413 323H181L139 86H442L427 0H28L151 700ZM265 848L393 945L498 835L486 774L375 854L250 784L265 848Z" />
<glyph unicode="&#xcb;" glyph-name="Edieresis" horiz-adv-x="514" d="M151 700H542L527 614H232L196 409H428L413 323H181L139 86H442L427 0H28L151 700ZM245 881H329L313 801H229L245 881ZM431 881H515L499 801H415L431 881Z" />
<glyph unicode="&#xcc;" glyph-name="Igrave" horiz-adv-x="255" d="M151 700H246L123 0H28L151 700ZM136 855L153 953L312 847L301 786L136 855Z" />
<glyph unicode="&#xcd;" glyph-name="Iacute" horiz-adv-x="255" d="M151 700H246L123 0H28L151 700ZM143 853L326 957L309 846L131 785L143 853Z" />
<glyph unicode="&#xce;" glyph-name="Icircumflex" horiz-adv-x="255" d="M151 700H246L123 0H28L151 700ZM118 848L246 945L351 835L339 774L228 854L103 784L118 848Z" />
<glyph unicode="&#xcf;" glyph-name="Idieresis" horiz-adv-x="255" d="M151 700H246L123 0H28L151 700ZM98 881H182L166 801H82L98 881ZM284 881H368L352 801H268L284 881Z" />
<glyph unicode="&#xd0;" glyph-name="Eth" horiz-adv-x="674" d="M467 700T525 667T614 570T646 421Q646 295 596 200T458 52T266 0H34L89 315H19L33 397H104L157 700H389Q467 700 525 667ZM363 87T422 130T512 247T543 414Q543 507 500 560T374 614H234L196 397H329L314
315H181L141 87H281Q363 87 422 130Z" />
<glyph unicode="&#xd1;" glyph-name="Ntilde" horiz-adv-x="653" d="M151 700H251L456 176L548 700H644L520 0H440L221 553L123 0H28L151 700ZM478 788T462 793T419 809Q377 827 362 827Q348 827 339 818T328 793H263Q271 841 295 867T355 893Q370 893 385 888T427
872Q443 865 459 860T488 854Q502 854 511 863T522 888H587Q580 839 555 814T493 788Q478 788 462 793Z" />
<glyph unicode="&#xd2;" glyph-name="Ograve" horiz-adv-x="710" d="M184 -14T115 64T46 282Q46 403 97 502T236 657T426 714Q545 714 614 636T683 418Q683 297 631 198T492 43T303 -14Q184 -14 115 64ZM396 72T455 120T546 246T579 412Q579 510 537 569T410 628Q333
628 274 581T183 455T151 288Q151 191 192 132T319 72Q396 72 455 120ZM364 855L381 953L540 847L529 786L364 855Z" />
<glyph unicode="&#xd3;" glyph-name="Oacute" horiz-adv-x="710" d="M184 -14T115 64T46 282Q46 403 97 502T236 657T426 714Q545 714 614 636T683 418Q683 297 631 198T492 43T303 -14Q184 -14 115 64ZM396 72T455 120T546 246T579 412Q579 510 537 569T410 628Q333
628 274 581T183 455T151 288Q151 191 192 132T319 72Q396 72 455 120ZM371 853L554 957L537 846L359 785L371 853Z" />
<glyph unicode="&#xd4;" glyph-name="Ocircumflex" horiz-adv-x="710" d="M184 -14T115 64T46 282Q46 403 97 502T236 657T426 714Q545 714 614 636T683 418Q683 297 631 198T492 43T303 -14Q184 -14 115 64ZM396 72T455 120T546 246T579 412Q579 510 537 569T410
628Q333 628 274 581T183 455T151 288Q151 191 192 132T319 72Q396 72 455 120ZM346 848L474 945L579 835L567 774L456 854L331 784L346 848Z" />
<glyph unicode="&#xd5;" glyph-name="Otilde" horiz-adv-x="710" d="M184 -14T115 64T46 282Q46 403 97 502T236 657T426 714Q545 714 614 636T683 418Q683 297 631 198T492 43T303 -14Q184 -14 115 64ZM396 72T455 120T546 246T579 412Q579 510 537 569T410 628Q333
628 274 581T183 455T151 288Q151 191 192 132T319 72Q396 72 455 120ZM507 790T492 796T454 813Q434 823 421 828T396 834Q366 834 358 798H286Q312 909 391 909Q407 909 421 904T456 886Q474 876 487 871T514 865Q545 865 552 904H624Q611 845 586 818T522 790Q507
790 492 796Z" />
<glyph unicode="&#xd6;" glyph-name="Odieresis" horiz-adv-x="710" d="M184 -14T115 64T46 282Q46 403 97 502T236 657T426 714Q545 714 614 636T683 418Q683 297 631 198T492 43T303 -14Q184 -14 115 64ZM396 72T455 120T546 246T579 412Q579 510 537 569T410
628Q333 628 274 581T183 455T151 288Q151 191 192 132T319 72Q396 72 455 120ZM326 881H410L394 801H310L326 881ZM512 881H596L580 801H496L512 881Z" />
<glyph unicode="&#xd7;" glyph-name="multiply" horiz-adv-x="439" d="M240 273L333 155L275 107L183 224L48 106L1 162L138 281L42 403L100 451L195 331L334 452L381 396L240 273Z" />
<glyph unicode="&#xd8;" glyph-name="Oslash" horiz-adv-x="710" d="M624 623Q683 545 683 418Q683 297 631 198T492 43T303 -14Q220 -14 161 24L108 -44H17L108 73Q46 151 46 282Q46 403 97 502T236 657T426 714Q512 714 571 673L626 744H718L624 623ZM151 214T175
161L511 596Q471 628 410 628Q333 628 274 581T183 455T151 288Q151 214 175 161ZM579 486T556 535L221 102Q260 72 319 72Q396 72 455 120T546 246T579 412Q579 486 556 535Z" />
<glyph unicode="&#xd9;" glyph-name="Ugrave" horiz-adv-x="668" d="M172 -14T119 42T65 204Q65 248 74 297L145 700H240L177 343Q165 276 165 229Q165 156 195 114T295 72Q391 72 439 146T509 343L572 700H667L596 297Q570 149 490 68T280 -14Q172 -14 119 42ZM349
855L366 953L525 847L514 786L349 855Z" />
<glyph unicode="&#xda;" glyph-name="Uacute" horiz-adv-x="668" d="M172 -14T119 42T65 204Q65 248 74 297L145 700H240L177 343Q165 276 165 229Q165 156 195 114T295 72Q391 72 439 146T509 343L572 700H667L596 297Q570 149 490 68T280 -14Q172 -14 119 42ZM356
853L539 957L522 846L344 785L356 853Z" />
<glyph unicode="&#xdb;" glyph-name="Ucircumflex" horiz-adv-x="668" d="M172 -14T119 42T65 204Q65 248 74 297L145 700H240L177 343Q165 276 165 229Q165 156 195 114T295 72Q391 72 439 146T509 343L572 700H667L596 297Q570 149 490 68T280 -14Q172 -14 119
42ZM331 848L459 945L564 835L552 774L441 854L316 784L331 848Z" />
<glyph unicode="&#xdc;" glyph-name="Udieresis" horiz-adv-x="668" d="M172 -14T119 42T65 204Q65 248 74 297L145 700H240L177 343Q165 276 165 229Q165 156 195 114T295 72Q391 72 439 146T509 343L572 700H667L596 297Q570 149 490 68T280 -14Q172 -14 119
42ZM311 881H395L379 801H295L311 881ZM497 881H581L565 801H481L497 881Z" />
<glyph unicode="&#xdd;" glyph-name="Yacute" horiz-adv-x="546" d="M226 323L78 700H178L292 409L504 700H604L324 323L267 0H169L226 323ZM286 853L469 957L452 846L274 785L286 853Z" />
<glyph unicode="&#xde;" glyph-name="Thorn" horiz-adv-x="517" d="M144 700H242L214 545H349Q436 545 481 507T527 399Q527 302 462 247T287 191H152L118 0H20L144 700ZM295 276Q357 276 392 304T427 383Q427 421 402 440T327 460H199L167 276H295Z" />
<glyph unicode="&#xdf;" glyph-name="germandbls" horiz-adv-x="553" d="M222 -14T170 0L182 80Q235 66 289 66Q343 66 379 90T415 158Q415 191 398 212T344 261Q309 288 292 308T275 361Q275 394 299 426T378 506Q410 536 424 559T439 615Q438 647 416 665T353
684Q294 684 258 650T210 552L113 0H22L96 420H24L44 490H108L119 550Q137 655 204 709T370 764Q443 764 486 729T529 635Q529 586 511 553T451 479L433 462Q394 424 382 409T370 375Q370 357 382 343T423 305Q464 272 486 243T508 167Q508 113 477 72T395 8T282
-14Q222 -14 170 0Z" />
<glyph unicode="&#xe0;" glyph-name="agrave" horiz-adv-x="540" d="M110 -10T66 43T21 186Q21 265 54 337T147 455T279 500Q361 500 393 438L412 490H492L433 143Q429 122 429 104Q429 80 439 71T476 62L451 -10Q416 -10 395 -6T359 13T337 62Q276 -10 184 -10Q110
-10 66 43ZM253 70T289 94T348 166T371 277Q371 349 343 384T269 420Q226 420 191 391T136 312T115 205Q115 145 139 108T214 70Q253 70 289 94ZM259 645L276 743L435 637L424 576L259 645Z" />
<glyph unicode="&#xe1;" glyph-name="aacute" horiz-adv-x="540" d="M110 -10T66 43T21 186Q21 265 54 337T147 455T279 500Q361 500 393 438L412 490H492L433 143Q429 122 429 104Q429 80 439 71T476 62L451 -10Q416 -10 395 -6T359 13T337 62Q276 -10 184 -10Q110
-10 66 43ZM253 70T289 94T348 166T371 277Q371 349 343 384T269 420Q226 420 191 391T136 312T115 205Q115 145 139 108T214 70Q253 70 289 94ZM266 643L449 747L432 636L254 575L266 643Z" />
<glyph unicode="&#xe2;" glyph-name="acircumflex" horiz-adv-x="540" d="M110 -10T66 43T21 186Q21 265 54 337T147 455T279 500Q361 500 393 438L412 490H492L433 143Q429 122 429 104Q429 80 439 71T476 62L451 -10Q416 -10 395 -6T359 13T337 62Q276 -10 184
-10Q110 -10 66 43ZM253 70T289 94T348 166T371 277Q371 349 343 384T269 420Q226 420 191 391T136 312T115 205Q115 145 139 108T214 70Q253 70 289 94ZM241 638L369 735L474 625L462 564L351 644L226 574L241 638Z" />
<glyph unicode="&#xe3;" glyph-name="atilde" horiz-adv-x="540" d="M110 -10T66 43T21 186Q21 265 54 337T147 455T279 500Q361 500 393 438L412 490H492L433 143Q429 122 429 104Q429 80 439 71T476 62L451 -10Q416 -10 395 -6T359 13T337 62Q276 -10 184 -10Q110
-10 66 43ZM253 70T289 94T348 166T371 277Q371 349 343 384T269 420Q226 420 191 391T136 312T115 205Q115 145 139 108T214 70Q253 70 289 94ZM402 580T387 586T349 603Q329 613 316 618T291 624Q261 624 253 588H181Q207 699 286 699Q302 699 316 694T351 676Q369
666 382 661T409 655Q440 655 447 694H519Q506 635 481 608T417 580Q402 580 387 586Z" />
<glyph unicode="&#xe4;" glyph-name="adieresis" horiz-adv-x="540" d="M110 -10T66 43T21 186Q21 265 54 337T147 455T279 500Q361 500 393 438L412 490H492L433 143Q429 122 429 104Q429 80 439 71T476 62L451 -10Q416 -10 395 -6T359 13T337 62Q276 -10 184
-10Q110 -10 66 43ZM253 70T289 94T348 166T371 277Q371 349 343 384T269 420Q226 420 191 391T136 312T115 205Q115 145 139 108T214 70Q253 70 289 94ZM221 671H305L289 591H205L221 671ZM407 671H491L475 591H391L407 671Z" />
<glyph unicode="&#xe5;" glyph-name="aring" horiz-adv-x="540" d="M110 -10T66 43T21 186Q21 265 54 337T147 455T279 500Q361 500 393 438L412 490H492L433 143Q429 122 429 104Q429 80 439 71T476 62L451 -10Q416 -10 395 -6T359 13T337 62Q276 -10 184 -10Q110
-10 66 43ZM253 70T289 94T348 166T371 277Q371 349 343 384T269 420Q226 420 191 391T136 312T115 205Q115 145 139 108T214 70Q253 70 289 94ZM293 568T271 590T248 647Q248 697 284 732T371 768Q413 768 435 746T458 689Q458 638 423 603T335 568Q293 568 271
590ZM368 612T387 632T406 679Q406 699 394 711T364 724Q339 724 320 704T300 656Q300 636 312 624T342 612Q368 612 387 632Z" />
<glyph unicode="&#xe6;" glyph-name="ae" horiz-adv-x="728" d="M52 -14T22 14T-8 93Q-8 207 83 253T294 307Q294 370 278 395T215 420Q187 420 159 413T96 391L100 461Q184 500 255 500Q303 500 338 474T374 380Q401 443 450 471T560 500Q627 500 665 459T703
343Q703 317 698 295T684 245H387Q383 211 383 198Q383 132 414 97T497 62Q528 62 559 71T630 99V30Q591 11 554 1T475 -10Q408 -10 368 17T314 103Q279 45 227 16T111 -14Q52 -14 22 14ZM615 307Q619 327 619 348Q618 385 599 402T542 420Q446 420 404 307H615ZM190
62T230 95T283 198Q289 240 290 245Q244 245 198 232T120 188T88 112Q88 86 103 74T144 62Q190 62 230 95Z" />
<glyph unicode="&#xe7;" glyph-name="ccedilla" horiz-adv-x="418" d="M211 420T164 362T116 212Q116 143 146 106T239 69Q290 69 347 99L344 22Q296 -4 235 -9L212 -54H220Q255 -54 275 -71T295 -120Q295 -166 260 -196T171 -226Q128 -226 96 -207L120 -158Q148
-175 180 -175Q206 -175 221 -163T236 -131Q236 -97 192 -97Q168 -97 144 -105L185 -9Q102 -1 63 55T23 199Q23 279 55 348T149 458T299 500Q336 500 369 493T423 471L397 390Q350 420 299 420Q211 420 164 362Z" />
<glyph unicode="&#xe8;" glyph-name="egrave" horiz-adv-x="458" d="M123 -10T72 49T21 202Q21 280 55 348T150 458T288 500Q358 500 396 466T434 375Q434 334 413 297T340 235T206 210Q182 210 157 212T118 218Q118 136 151 103T245 70Q276 70 312 77T380 99L376
28Q310 -10 221 -10Q123 -10 72 49ZM279 271T315 299T351 364Q351 392 331 406T279 420Q231 420 192 386T128 281Q158 271 198 271Q279 271 315 299ZM235 645L252 743L411 637L400 576L235 645Z" />
<glyph unicode="&#xe9;" glyph-name="eacute" horiz-adv-x="458" d="M123 -10T72 49T21 202Q21 280 55 348T150 458T288 500Q358 500 396 466T434 375Q434 334 413 297T340 235T206 210Q182 210 157 212T118 218Q118 136 151 103T245 70Q276 70 312 77T380 99L376
28Q310 -10 221 -10Q123 -10 72 49ZM279 271T315 299T351 364Q351 392 331 406T279 420Q231 420 192 386T128 281Q158 271 198 271Q279 271 315 299ZM242 643L425 747L408 636L230 575L242 643Z" />
<glyph unicode="&#xea;" glyph-name="ecircumflex" horiz-adv-x="458" d="M123 -10T72 49T21 202Q21 280 55 348T150 458T288 500Q358 500 396 466T434 375Q434 334 413 297T340 235T206 210Q182 210 157 212T118 218Q118 136 151 103T245 70Q276 70 312 77T380
99L376 28Q310 -10 221 -10Q123 -10 72 49ZM279 271T315 299T351 364Q351 392 331 406T279 420Q231 420 192 386T128 281Q158 271 198 271Q279 271 315 299ZM217 638L345 735L450 625L438 564L327 644L202 574L217 638Z" />
<glyph unicode="&#xeb;" glyph-name="edieresis" horiz-adv-x="458" d="M123 -10T72 49T21 202Q21 280 55 348T150 458T288 500Q358 500 396 466T434 375Q434 334 413 297T340 235T206 210Q182 210 157 212T118 218Q118 136 151 103T245 70Q276 70 312 77T380
99L376 28Q310 -10 221 -10Q123 -10 72 49ZM279 271T315 299T351 364Q351 392 331 406T279 420Q231 420 192 386T128 281Q158 271 198 271Q279 271 315 299ZM197 671H281L265 591H181L197 671ZM383 671H467L451 591H367L383 671Z" />
<glyph unicode="&#xec;" glyph-name="igrave" horiz-adv-x="214" d="M96 490H187L101 0H10L96 490ZM80 645L97 743L256 637L245 576L80 645Z" />
<glyph unicode="&#xed;" glyph-name="iacute" horiz-adv-x="214" d="M96 490H187L101 0H10L96 490ZM87 643L270 747L253 636L75 575L87 643Z" />
<glyph unicode="&#xee;" glyph-name="icircumflex" horiz-adv-x="214" d="M96 490H187L101 0H10L96 490ZM62 638L190 735L295 625L283 564L172 644L47 574L62 638Z" />
<glyph unicode="&#xef;" glyph-name="idieresis" horiz-adv-x="214" d="M96 490H187L101 0H10L96 490ZM298 671H382L366 591H282L298 671ZM484 671H568L552 591H468L484 671Z" />
<glyph unicode="&#xf0;" glyph-name="eth" horiz-adv-x="487" d="M372 587Q443 488 443 342Q443 235 410 155T319 31T189 -12Q105 -12 58 39T10 170Q10 239 39 297T120 391T235 426Q309 426 350 371Q350 480 301 557L179 505L153 561L260 607Q228 638 185 659L217
701Q277 681 329 636L431 679L456 623L372 587ZM232 71T262 93T309 153T326 238Q326 286 304 314T242 343Q203 343 172 322T124 264T107 184Q107 134 130 103T197 71Q232 71 262 93Z" />
<glyph unicode="&#xf1;" glyph-name="ntilde" horiz-adv-x="515" d="M96 490H173L170 438Q207 473 241 486T316 500Q392 500 427 460T462 343Q462 323 453 263T407 0H316Q352 203 361 259T370 331Q370 377 350 398T286 420Q248 420 217 404T164 356L101 0H10L96
490ZM382 580T367 586T329 603Q309 613 296 618T271 624Q241 624 233 588H161Q187 699 266 699Q282 699 296 694T331 676Q349 666 362 661T389 655Q420 655 427 694H499Q486 635 461 608T397 580Q382 580 367 586Z" />
<glyph unicode="&#xf2;" glyph-name="ograve" horiz-adv-x="514" d="M116 -10T69 47T21 197Q21 277 56 347T152 458T290 500Q380 500 427 442T475 292Q475 212 440 143T344 32T206 -10Q116 -10 69 47ZM268 70T305 98T362 176T382 285Q382 420 277 420Q228 420
191 392T134 314T114 205Q114 70 219 70Q268 70 305 98ZM231 645L248 743L407 637L396 576L231 645Z" />
<glyph unicode="&#xf3;" glyph-name="oacute" horiz-adv-x="514" d="M116 -10T69 47T21 197Q21 277 56 347T152 458T290 500Q380 500 427 442T475 292Q475 212 440 143T344 32T206 -10Q116 -10 69 47ZM268 70T305 98T362 176T382 285Q382 420 277 420Q228 420
191 392T134 314T114 205Q114 70 219 70Q268 70 305 98ZM238 643L421 747L404 636L226 575L238 643Z" />
<glyph unicode="&#xf4;" glyph-name="ocircumflex" horiz-adv-x="514" d="M116 -10T69 47T21 197Q21 277 56 347T152 458T290 500Q380 500 427 442T475 292Q475 212 440 143T344 32T206 -10Q116 -10 69 47ZM268 70T305 98T362 176T382 285Q382 420 277 420Q228
420 191 392T134 314T114 205Q114 70 219 70Q268 70 305 98ZM213 638L341 735L446 625L434 564L323 644L198 574L213 638Z" />
<glyph unicode="&#xf5;" glyph-name="otilde" horiz-adv-x="514" d="M116 -10T69 47T21 197Q21 277 56 347T152 458T290 500Q380 500 427 442T475 292Q475 212 440 143T344 32T206 -10Q116 -10 69 47ZM268 70T305 98T362 176T382 285Q382 420 277 420Q228 420
191 392T134 314T114 205Q114 70 219 70Q268 70 305 98ZM374 580T359 586T321 603Q301 613 288 618T263 624Q233 624 225 588H153Q179 699 258 699Q274 699 288 694T323 676Q341 666 354 661T381 655Q412 655 419 694H491Q478 635 453 608T389 580Q374 580 359
586Z" />
<glyph unicode="&#xf6;" glyph-name="odieresis" horiz-adv-x="514" d="M116 -10T69 47T21 197Q21 277 56 347T152 458T290 500Q380 500 427 442T475 292Q475 212 440 143T344 32T206 -10Q116 -10 69 47ZM268 70T305 98T362 176T382 285Q382 420 277 420Q228 420
191 392T134 314T114 205Q114 70 219 70Q268 70 305 98ZM193 671H277L261 591H177L193 671ZM379 671H463L447 591H363L379 671Z" />
<glyph unicode="&#xf7;" glyph-name="divide" horiz-adv-x="462" d="M197 503H293L276 403H180L197 503ZM24 319H404L390 243H10L24 319ZM136 159H232L215 59H119L136 159Z" />
<glyph unicode="&#xf8;" glyph-name="oslash" horiz-adv-x="514" d="M433 435Q475 380 475 292Q475 212 440 143T344 32T206 -10Q150 -10 110 13L70 -40H-10L63 55Q21 109 21 197Q21 277 56 347T152 458T290 500Q345 500 385 477L426 530H506L433 435ZM114 162T124
135L332 407Q310 420 277 420Q228 420 191 392T134 314T114 205Q114 162 124 135ZM382 328T372 355L164 83Q186 70 219 70Q268 70 305 98T362 176T382 285Q382 328 372 355Z" />
<glyph unicode="&#xf9;" glyph-name="ugrave" horiz-adv-x="494" d="M105 -10T70 27T34 134Q34 158 42 202L91 490H182L135 216Q129 181 129 162Q129 70 207 70Q237 70 264 84T312 126L376 490H467L381 0H298L301 54Q245 -10 170 -10Q105 -10 70 27ZM217 645L234
743L393 637L382 576L217 645Z" />
<glyph unicode="&#xfa;" glyph-name="uacute" horiz-adv-x="494" d="M105 -10T70 27T34 134Q34 158 42 202L91 490H182L135 216Q129 181 129 162Q129 70 207 70Q237 70 264 84T312 126L376 490H467L381 0H298L301 54Q245 -10 170 -10Q105 -10 70 27ZM224 643L407
747L390 636L212 575L224 643Z" />
<glyph unicode="&#xfb;" glyph-name="ucircumflex" horiz-adv-x="494" d="M105 -10T70 27T34 134Q34 158 42 202L91 490H182L135 216Q129 181 129 162Q129 70 207 70Q237 70 264 84T312 126L376 490H467L381 0H298L301 54Q245 -10 170 -10Q105 -10 70 27ZM199
638L327 735L432 625L420 564L309 644L184 574L199 638Z" />
<glyph unicode="&#xfc;" glyph-name="udieresis" horiz-adv-x="494" d="M105 -10T70 27T34 134Q34 158 42 202L91 490H182L135 216Q129 181 129 162Q129 70 207 70Q237 70 264 84T312 126L376 490H467L381 0H298L301 54Q245 -10 170 -10Q105 -10 70 27ZM179 671H263L247
591H163L179 671ZM365 671H449L433 591H349L365 671Z" />
<glyph unicode="&#xfd;" glyph-name="yacute" horiz-adv-x="459" d="M135 22L32 490H133L200 126L386 490H487L84 -242H-13L135 22ZM205 643L388 747L371 636L193 575L205 643Z" />
<glyph unicode="&#xfe;" glyph-name="thorn" horiz-adv-x="522" d="M142 750H233L177 442Q237 500 320 500Q398 500 440 442T482 293Q482 215 451 145T363 33T236 -10Q149 -10 111 62L58 -242H-33L142 750ZM276 70T311 100T367 180T388 287Q388 348 364 384T292
420Q252 420 216 394T157 319T134 206Q134 136 160 103T231 70Q276 70 311 100Z" />
<glyph unicode="&#xff;" glyph-name="ydieresis" horiz-adv-x="459" d="M135 22L32 490H133L200 126L386 490H487L84 -242H-13L135 22ZM160 671H244L228 591H144L160 671ZM346 671H430L414 591H330L346 671Z" />
<glyph unicode="&#x2013;" glyph-name="endash" horiz-adv-x="616" d="M15 354H616L601 268H0L15 354Z" />
<glyph unicode="&#x2014;" glyph-name="emdash" horiz-adv-x="691" d="M15 354H691L676 268H0L15 354Z" />
<glyph unicode="&#x2018;" glyph-name="quoteleft" horiz-adv-x="187" d="M227 700L172 593H207L188 487H80L97 583L170 700H227Z" />
<glyph unicode="&#x2019;" glyph-name="quoteright" horiz-adv-x="167" d="M60 487L115 594H80L99 700H207L190 604L117 487H60Z" />
<glyph unicode="&#x201a;" glyph-name="quotesinglbase" horiz-adv-x="187" d="M-30 -107L25 0H-10L9 106H117L100 10L27 -107H-30Z" />
<glyph unicode="&#x201c;" glyph-name="quotedblleft" horiz-adv-x="347" d="M227 700L172 593H207L188 487H80L97 583L170 700H227ZM387 700L332 593H367L348 487H240L257 583L330 700H387Z" />
<glyph unicode="&#x201d;" glyph-name="quotedblright" horiz-adv-x="327" d="M60 487L115 594H80L99 700H207L190 604L117 487H60ZM220 487L275 594H240L259 700H367L350 604L277 487H220Z" />
<glyph unicode="&#x201e;" glyph-name="quotedblbase" horiz-adv-x="347" d="M-30 -107L25 0H-10L9 106H117L100 10L27 -107H-30ZM130 -107L185 0H150L169 106H277L260 10L187 -107H130Z" />
<glyph unicode="&#x2022;" glyph-name="bullet" horiz-adv-x="287" d="M86 169T63 195T40 261Q40 294 56 323T100 369T159 387Q194 387 217 361T240 295Q240 262 224 233T180 187T121 169Q86 169 63 195Z" />
<glyph unicode="&#x2039;" glyph-name="guilsinglleft" horiz-adv-x="309" d="M17 284L194 490H303L126 284L231 78H122L17 284Z" />
<glyph unicode="&#x203a;" glyph-name="guilsinglright" horiz-adv-x="310" d="M180 284L76 490H185L289 284L112 78H3L180 284Z" />
</font>
</defs>
</svg>
